<?xml version="1.0" standalone="no"?>
<!DOCTYPE svg PUBLIC "-//W3C//DTD SVG 1.1//EN" "http://www.w3.org/Graphics/SVG/1.1/DTD/svg11.dtd" >
<!--
2013-9-30: Created.
-->
<svg>
<metadata>
Created by iconfont
</metadata>
<defs>

<font id="wk" horiz-adv-x="1024" >
  <font-face
    font-family="wk"
    font-weight="500"
    font-stretch="normal"
    units-per-em="1024"
    ascent="896"
    descent="-128"
  />
    <missing-glyph />
    
    <glyph glyph-name="icon-good-l" unicode="&#59155;" d="M610.986667 810.666667a33.28 33.28 0 0 1-30.72-27.306667v-29.013333a324.266667 324.266667 0 0 0-201.386667-307.2v-481.28h456.533333a28.16 28.16 0 0 1 27.306667 21.333333l121.173333 422.4a29.866667 29.866667 0 0 1-5.12 26.453333 23.04 23.04 0 0 1-20.48 10.24H586.24l54.613333 121.173334a76.8 76.8 0 0 1 6.826667 20.48V614.4a282.453333 282.453333 0 0 1-5.973333 155.306667l-1.706667 20.48A28.16 28.16 0 0 1 613.546667 810.666667m0 85.333333a112.64 112.64 0 0 0 106.666666-76.8l7.68-20.48a360.96 360.96 0 0 0 8.533334-203.946667v-15.36a225.28 225.28 0 0 0-14.506667-46.08h238.933333a109.226667 109.226667 0 0 0 85.333334-45.226666A115.2 115.2 0 0 0 1065.813333 384l-121.173333-426.666667a112.64 112.64 0 0 0-109.226667-85.333333H293.546667V511.146667A238.933333 238.933333 0 0 1 494.933333 754.346667v29.013333A117.76 117.76 0 0 0 610.986667 896zM264.533333-120.32000000000005H140.8A140.8 140.8 0 0 0 0 20.480000000000018v341.333333a146.773333 146.773333 0 0 0 138.24 145.92H264.533333zM140.8 422.4a60.586667 60.586667 0 0 1-55.466667-61.44v-341.333333a55.466667 55.466667 0 0 1 55.466667-55.466667h38.4V422.4z"  horiz-adv-x="1078" />

    
    <glyph glyph-name="icon-task-progress" unicode="&#59170;" d="M451.003112 153.63511700000004A281.775583 281.775583 0 1 1 732.778695 435.551166a281.70535 281.70535 0 0 1-281.775583-281.916049z m262.250755 141.941289h6.60192l1.615364-0.351166 1.615363-0.421399 1.54513-0.491632 1.545131-0.561866 1.54513-0.702332 1.474897-0.772565 1.474897-0.842799 1.404664-0.913031 1.334431-0.983265 1.334431-1.053498 1.264197-1.053498 1.193965-1.123731 1.123731-1.193964 1.053498-1.264198 1.053498-1.33443 0.983264-1.334431 0.913032-1.404664 0.842798-1.474897 0.772565-1.474897 0.702332-1.545131 0.561866-1.54513 0.491632-1.54513 0.4214-1.615364 0.351166-1.615363v-111.811249H857.864018l1.615363-0.351166 1.615364-0.421399 1.54513-0.491632 1.54513-0.561866 1.545131-0.702332 1.474897-0.772565 1.474897-0.842798 1.404664-0.913032 1.33443-0.983264 1.334431-1.053498 1.264198-1.053498 1.193964-1.123731 1.123731-1.193965 1.053498-1.264197 1.053498-1.334431 0.983265-1.334431 0.913031-1.404664 0.842799-1.474897 0.772565-1.474897 0.702332-1.54513 0.561865-1.545131 0.491633-1.54513 0.421399-1.615363 0.351166-1.615364V117.32455400000003l-0.351166-1.615363-0.421399-1.615364-0.491633-1.54513-0.561865-1.54513-0.702332-1.545131-0.772565-1.474897-0.842799-1.474897-0.913031-1.404664-0.983265-1.334431-1.053498-1.33443-1.053498-1.264198-1.123731-1.193964-1.193964-1.123731-0.772565-1.404664-1.334431-1.053498-1.334431-0.983265-1.404664-0.913032-1.474897-0.842798-1.474897-0.772565-1.54513-0.702332-1.545131-0.561866-1.54513-0.491632-1.615364-0.421399-1.615363-0.351166h-145.382716a33.641701 33.641701 0 0 0-6.180521 0.561865h-1.404664l-1.404664 0.351166-1.404664 0.4214-1.404664 0.491632-1.334431 0.561866-1.33443 0.632098-1.334431 0.632099-1.264198 0.702332-1.264197 0.772565-1.193965 0.842799-1.193964 0.842798-1.123731 0.913031-1.123731 0.983265-1.053498 1.053498-0.983265 1.053498-0.983265 1.123731-0.913031 1.123731-0.842799 1.193965-0.842798 1.193964-0.772565 0.772565-0.702332 1.264198-0.632099 1.33443-0.561865 1.334431-0.561866 1.334431-0.491632 1.404664-0.421399 1.404664v4.284225 1.474897 1.474897V262.00493800000004v1.685597 1.685597 1.615363 1.615364l0.351166 1.615363 0.421399 1.615364 0.421399 1.193964 0.561865 1.54513 0.702332 1.545131 0.772566 1.474897 0.842798 1.474897 0.913031 1.404664 0.983265 1.334431 1.053498 1.33443 1.053498 1.264198 1.123731 1.193964 1.193965 1.474897 1.264197 1.053498 1.334431 1.053498 1.334431 0.983265 1.404663 0.913031 1.474898 0.842799 1.474897 0.772565 1.54513 0.702332 1.54513 0.561866 1.545131 0.491632 1.615363 0.421399 1.615364 0.351166h6.60192zM905.130959 895.7893H71.392687L68.021494 895.367901 64.720533 894.806036 61.419573 894.033471 58.188846 893.120439 54.958119 892.066941 51.516693 891.083676 48.426432 889.749246 45.406404 888.204115 42.45661 886.518519 39.577049 884.692455 36.837955 882.725926l-2.668862-2.106996L31.640698 878.441701 29.182536 876.124005 26.864841 873.665844 24.687612 871.137449l-2.106996-2.668862L20.614086 865.729492 18.788023 862.849931 17.102426 859.900137 15.557296 856.8801100000001 14.222865 853.789849 13.028901 850.629355 11.975403 847.398628 11.062372 844.167901 10.289806 840.866941q0-1.685597-0.561865-3.30096T9.376775 833.984088v-149.807408q0-1.685597 0.421399-3.371193t0.561866-3.30096q0-1.685597 0.772565-3.30096t0.913031-3.230727l1.053498-3.230728 1.193965-3.160493 1.33443-3.090261 1.545131-3.020027 1.685596-2.949795 1.826063-2.879561 1.96653-2.739094 2.106996-2.668862 2.177229-2.528395 2.317695-2.458162 2.458162-2.317695 2.528395-2.177229 2.668862-2.106996 2.739094-1.96653 2.879561-1.826063 2.949795-1.685596 3.020027-1.545131 3.090261-1.334431 3.160494-1.193964 3.230727-1.053498 3.230727-0.913031 3.30096-0.772565 3.30096-0.561866 3.371193-0.421399h840.550892l3.371193 0.421399 3.300961 0.561866 3.441426 0.842798 3.230727 0.913031 3.230727 1.053498 3.160494 1.193965 3.090261 1.33443 3.020027 1.545131 2.949794 1.685596 2.879562 1.826064 2.739094 1.966529 2.668862 2.106996 2.528395 2.177229 2.458162 2.317695 2.317695 2.458162 2.177229 2.528395 2.106996 2.668862 1.966529 2.739095 1.826064 2.879561 1.685596 2.949794 1.545131 3.020027 1.33443 3.090261 1.193965 3.160494 1.053498 3.230727 0.913031 3.230727 0.772565 3.30096q0 1.685597 0.561866 3.30096t0.421399 3.371194v3.371193V827.241701 830.612894 833.984088q0 1.685597-0.421399 3.371193t-0.561866 3.30096q0 1.685597-0.772565 3.300961t-0.913031 3.230727l-1.053498 3.230727-1.193965 3.160494-1.33443 3.09026-1.545131 3.020028-1.685596 2.949794-1.826064 2.879561-1.966529 2.739095-2.106996 2.668861-2.177229 2.528395-2.317695 2.458162-2.458162 2.317695-2.528395 2.177229-2.668862 2.106996-2.739094 1.96653-2.879562 1.826063-2.949794 1.685597-3.020027 1.54513-3.090261 1.334431-3.160494 1.193964-3.230727 1.053498-3.230727 0.913032-3.30096 0.772565-3.30096 0.561865-3.371194 0.421399h-3.371193zM232.156473 822.60631h6.60192l1.264198-0.351166 1.264198-0.421399 1.264197-0.491633 1.193964-0.561865 1.193965-0.561866 1.123731-0.632098 1.123731-0.702332 1.053498-0.772566 1.053498-0.842798 0.983265-0.842798 0.983264-0.913032 0.913032-0.983265 0.842798-0.983264 0.842799-1.053498 0.772565-1.053498 0.702332-1.123731 0.632099-1.123731 0.561865-1.193965 0.561866-1.193964 0.491632-1.264198 0.421399-1.264197 0.351166-1.264198V721.0491079999999l-0.351166-1.264197-0.421399-1.264198-0.491632-1.264197-0.561866-1.193965-0.561865-1.193964-0.632099-1.123731-0.702332-1.123731-0.772565-1.053498-0.842799-1.053498-0.842798-0.983265-0.913032-0.983265-0.983264-0.913031-0.983265-0.842798-1.053498-0.842799-1.053498-0.772565-1.123731-0.702332-1.123731-0.632099-1.193965-0.561865-1.193964-0.561866-1.264197-0.491632-1.264198-0.421399-1.264198-0.351166H225.624786l-1.264198 0.351166-1.264197 0.421399-1.264198 0.491632-1.193964 0.561866-1.193964 0.561865-1.123732 0.632099-1.123731 0.702332-1.053498 0.772565-1.053498 0.842799-0.983264 0.842798L213.053044 708.477366l-0.913032 0.983265-0.842798 0.983265-0.842799 1.053498-0.772565 1.053498-0.702332 1.123731-0.632098 1.123731-0.561866 1.193964-0.561866 1.193965-0.491632 1.264197-0.421399 1.264198-0.351166 1.264197v2.598628 1.334431 1.334431 70.09273V797.673525v1.334431V802.941015l0.351166 1.264198 0.421399 1.264197 0.491632 1.264198 0.561866 1.193964 0.561866 1.193964 0.632098 1.123731 0.702332 1.123732 0.772565 1.053498 0.842799 1.053498 0.842798 0.983264 0.913032 0.983265 0.983264 0.913032 0.983265 0.842798 1.053498 0.842798 1.053498 0.772565 1.123731 0.702332 1.123731 0.632099 1.193965 0.561866 1.193964 0.561865 1.264198 0.491633 1.264197 0.421399 1.264198 0.351166h6.60192z m-108.791221 0h6.601921l1.264197-0.351166 1.264198-0.421399 1.264197-0.491633 1.193965-0.561865 1.193964-0.561866 1.123731-0.632098 1.123731-0.702332 1.053498-0.772566 1.053498-0.842798 0.983265-0.842798 0.983265-0.913032 0.913031-0.983265 0.842798-0.983264 0.842799-1.053498 0.772565-1.053498 0.702332-1.123731 0.632099-1.123731 0.561865-1.193965 0.561866-1.193964 0.491632-1.264198 0.421399-1.264197 0.351166-1.264198V721.0491079999999l-0.351166-1.264197-0.421399-1.264198-0.491632-1.264197-0.561866-1.193965-0.561865-1.193964-0.632099-1.123731-0.702332-1.123731-0.772565-1.053498-0.842799-1.053498-0.842798-0.983265-0.913031-0.983265-0.983265-0.913031-0.983265-0.842798-1.053498-0.842799-1.053498-0.772565-1.123731-0.702332-1.123731-0.632099-1.193964-0.561865-1.193965-0.561866-1.264197-0.491632-1.264198-0.421399-1.264197-0.351166H116.833565l-1.264198 0.351166-1.264197 0.421399-1.264198 0.491632-1.193964 0.561866-1.193964 0.561865-1.123731 0.632099-1.123732 0.702332-1.053498 0.772565-1.053497 0.842799-0.983265 0.842798-0.983265 0.913031-0.913032 0.983265-0.842798 0.983265-0.842798 1.053498-0.772565 1.053498-0.702332 1.123731-0.632099 1.123731-0.561866 1.193964-0.561865 1.193965-0.491633 1.264197-0.421399 1.264198-0.351166 1.264197v2.598629 1.33443 1.334431 70.09273 1.334431 1.33443V803.011248l0.351166 1.264198 0.421399 1.264197 0.491633 1.264198 0.561865 1.193964 0.561866 1.193965 0.632099 1.123731 0.702332 1.123731 0.772565 1.053498 0.842798 1.053498 0.842798 0.983264 0.913032 0.983265 0.983265 0.913032 0.983265 0.842798 1.053497 0.842798 1.053498 0.772566 1.123732 0.702332 1.123731 0.632098 1.193964 0.561866 1.193964 0.561865 1.264198 0.491633 1.264197 0.421399 1.264198 0.351166h6.60192zM78.135074 563.7267489999999h833.597805l3.371193-0.421399 3.300961-0.561866 3.30096-0.772565 3.230727-0.913031 3.230727-1.053498 3.160494-1.193965 3.09026-1.33443 3.020028-1.545131 2.949794-1.685597 2.879561-1.826063 2.739095-1.966529 2.668861-2.106996 2.528395-2.177229 2.458162-2.317696 2.317696-2.458161 2.177229-2.528395 2.106996-2.668862 1.966529-2.739095 1.826063-2.879561 1.685597-2.949794 1.54513-3.020027 1.334431-3.090261 1.193964-3.160494 1.053498-3.230727 0.913032-3.230727 0.772565-3.30096q0-1.685597 0.561866-3.30096t0.421399-3.371194V379.78600800000004a331.14952 331.14952 0 0 1-548.521262-89.758024H71.392687l-3.371193 0.421399-3.300961 0.561865-3.30096 0.772565-3.230727 0.913032-3.230727 1.053498-3.160494 1.193964-3.09026 1.334431-3.020028 1.54513-2.949794 1.685597-2.879561 1.826063-2.739095 1.96653-2.668861 2.106995-2.528395 2.17723-2.458162 2.317695-2.317696 2.458162-2.177229 2.528395-2.106996 2.668861-1.966529 2.739095-1.826063 2.879561-1.685597 2.949794-1.54513 3.020028-1.334431 3.09026-1.193964 3.160494-1.053498 3.230727-0.913032 3.230727-0.772565 3.300961q0 1.685597-0.561865 3.30096T9.376775 352.043896v3.371193 139.693827 3.371194 3.371193q0 1.685597 0.421399 3.371194t0.561866 3.30096q0 1.685597 0.772565 3.30096t0.913031 3.230727l1.053498 3.230727 1.193965 3.160494 1.33443 3.090261 1.545131 3.020027 1.685596 2.949794 1.826063 2.879561 1.96653 2.739095 2.106996 2.668861 2.177229 2.528395 2.317695 2.458162 2.458162 2.317696 2.528395 2.177229 2.668862 2.106996 2.739094 1.966529 3.090261 1.615364 2.949794 1.685596 3.020028 1.545131 3.09026 1.33443 3.160494 1.193965 3.230727 1.053498 3.230727 0.913031 3.30096 0.772565 3.300961 0.561866 3.371193 0.421399h3.371193zM232.156473 490.754458h-6.60192l-1.264198-0.351166-1.264197-0.421399-1.264198-0.491632-1.193964-0.561866-1.193965-0.561866-1.123731-0.632098-1.123731-0.702332-1.053498-0.772565-1.053498-0.842799-0.913031-1.685596-0.983265-0.913032-0.913032-0.983265-0.842798-0.983264-0.842798-1.053498-0.772566-1.053498-0.702332-1.123732-0.632098-1.123731-0.561866-1.193964-0.561865-1.193964-0.491633-1.264198-0.421399-1.264197-0.351166-1.264198V388.354458l0.351166-1.264197 0.421399-1.264198 0.491633-1.264197 0.561865-1.193965 0.561866-1.193964 0.632098-1.123731 0.702332-1.123731 0.772566-1.053498 0.842798-1.053498 0.842798-0.983265 0.913032-0.983265 0.983265-0.913031 0.983264-0.842799 1.053498-0.842798 1.053498-0.772565 1.123731-0.702332 1.123732-0.632099 1.193964-0.561865 1.193964-0.561866 1.264198-0.491632 1.264197-0.4214 1.264198-0.351166H238.758393l1.264198 0.351166 1.264198 0.4214 1.264197 0.491632 1.193964 0.561866 1.193965 0.561865 1.123731 0.632099 1.123731 0.702332 1.053498 0.772565 1.053498 0.842798 0.983265 0.842799 0.983264 0.913031 0.913032 0.983265 0.842798 0.983265 0.842799 1.053498 0.772565 1.053498 0.702332 1.123731 0.632099 1.123731 0.561865 1.193964 0.561866 1.193965 0.491632 1.264197 0.421399 1.264198 0.351166 1.264197v2.598628 1.334431 1.334431 70.09273 1.33443 1.334431V470.316598l-0.351166 1.264198-0.421399 1.264197-0.491632 1.264198-0.561866 1.193964-0.632099 1.404664-0.632098 1.123731-0.702332 1.123731-0.772566 1.053498-0.842798 1.053498-0.842798 0.983265-0.913032 0.983265-0.913031 0.702332-0.983265 0.842798-1.053498 0.842798-1.053498 0.772565-1.123731 0.702332-1.123731 0.632099-1.193965 0.561866L242.550986 488.647462l-1.264197 0.491633-1.264198 0.421399-1.264198 0.351166h-6.60192z m-108.791221 0h-6.60192l-1.264198-0.351166-1.264197-0.421399-1.264198-0.491632-1.193964-0.561866-1.193965-0.561866-1.123731-0.632098-1.123731-0.702332-1.053498-0.772565-1.053498-0.842799-0.983264-1.685596-0.983265-0.913032-0.913032-0.983265-0.842798-0.983264-0.842798-1.053498-0.772566-1.053498-0.702332-1.123732-0.632098-1.123731-0.561866-1.193964-0.561865-1.193964-0.491633-1.264198-0.421399-1.264197-0.351166-1.264198V388.354458l0.351166-1.264197 0.421399-1.264198 0.491633-1.264197 0.561865-1.193965 0.561866-1.193964 0.632098-1.123731 0.702332-1.123731 0.772566-1.053498 0.842798-1.053498 0.842798-0.983265 0.913032-0.983265 0.983265-0.913031 0.983264-0.842799 1.053498-0.842798 1.053498-0.772565 1.123731-0.702332 1.123731-0.632099 1.193965-0.561865 1.193964-0.561866 1.264198-0.491632 1.264197-0.4214 1.264198-0.351166H129.896939l1.264198 0.351166 1.264197 0.4214 1.264198 0.491632 1.193964 0.561866 0.913032 0.772565 1.123731 0.632098 1.123731 0.702332 1.053498 0.772566 1.053498 0.842798 0.983265 0.842798 0.983265 0.913032 0.913031 0.983265 0.842798 0.983264 0.842799 1.053498 0.772565 1.053498 0.702332 1.123731 0.632099 1.123731 0.561865 1.193965 0.561866 1.193964 0.491632 1.264198 0.421399 1.264197 0.351166 1.264198v2.598628 1.334431 1.33443 70.09273 1.334431 1.334431V470.527298l-0.351166 1.264197-0.421399 1.264198-0.491632 1.264197-0.561866 1.193965-0.561865 1.193964-0.632099 1.123731-0.702332 1.123731-0.772565 1.053498-0.842799 1.053498-0.842798 0.983265-0.913031 0.983265-0.702332 0.702332-0.983265 0.842798-1.053498 0.842798-1.053498 0.772565-1.123731 0.702332-1.123731 0.632099-1.193965 0.561866L133.689532 488.647462l-1.264198 0.491633-1.264197 0.421399-1.264198 0.351166h-6.60192z m278.825789-278.334156a333.396982 333.396982 0 0 1-4.494925-54.852126 330.096022 330.096022 0 0 1 82.734705-218.916873H71.392687l-3.371193 0.421399-3.300961 0.561866-3.30096 0.772565-3.230727 0.913032-3.230727 1.053498L51.516693-56.362139999999954l-3.090261 1.334431-3.020028 1.54513-2.949794 1.685597-2.879561 1.826063-2.739094 1.966529-2.668862 2.106996-2.528395 2.177229-2.458162 2.317696-2.317695 2.458162-2.177229 2.528395-2.106996 2.668861-1.96653 2.739095-1.826063 2.879561-1.685597 2.949794-1.54513 3.020028-1.334431 3.09026-1.193964 3.160494-1.053498 3.230727-0.913031 3.230727-0.772566 3.30096q0 1.685597-0.561865 3.300961T9.376775 0.38628300000004856v3.371193 139.693827 3.371194 3.371193q0 1.685597 0.421399 3.371193t0.561866 3.300961q0 1.685597 0.772565 3.30096t0.913031 3.230727l1.053498 3.230727 1.193965 3.160494 1.33443 3.09026 1.545131 3.020028 1.685596 2.949794 1.826063 2.879561 1.96653 2.739095 2.106996 2.668861 2.177229 2.528395 2.317695 2.458162 2.458162 2.317696 2.528395 2.177229 2.668862 2.106996 2.739094 1.966529 2.879561 1.826063 2.949795 1.685597 3.020027 1.54513 3.090261 1.334431 3.160494 1.193964 3.230727 1.053498 3.230727 0.913032 3.30096 0.772565 3.30096 0.561865 3.371193 0.4214h330.868588z m-170.034568-73.182991h-6.60192l-1.264198-0.351166-1.264197-0.421399-1.264198-0.491632-1.193964-0.561866-1.193965-0.561865-1.123731-0.632099-1.123731-0.702332-1.053498-0.772565-0.983265-2.177229-0.983264-0.842799-0.983265-0.913031-0.913032-0.983265-0.842798-0.983265-0.842798-1.053498-0.772566-1.053498-0.702332-1.123731-0.632098-1.123731-0.561866-1.193964-0.561865-1.193964-0.491633-1.264198-0.421399-1.264198-0.351166-1.053497V36.55637899999999l0.351166-1.264198 0.421399-1.264197 0.491633-1.264198 0.561865-1.193964 0.561866-1.193965 0.632098-1.123731 0.702332-1.123731 0.772566-1.053498 0.842798-1.053498 0.842798-0.983265 0.913032-0.983264 0.983265-0.913032 0.983264-0.842798 1.053498-0.842799 1.053498-0.772565 1.123731-0.702332 1.123732-0.632098 1.193964-0.561866 1.193964-0.561866 1.264198-0.491632 1.264197-0.421399 1.264198-0.351166H238.758393l1.264198 0.351166 1.264198 0.421399 1.264197 0.491632 1.193964 0.561866 1.193965 0.561866 1.123731 0.632098 1.123731 0.702332 1.053498 0.772565 1.053498 0.842799 0.983265 0.842798 0.983264 0.913032 0.913032 0.983264 0.842798 0.983265 0.842799 1.053498 0.772565 1.053498 0.702332 1.123731 0.632099 1.123731 0.561865 1.193965 0.561866 1.193964 0.491632 1.264198 0.421399 1.264197 0.351166 1.264198V39.155006999999955v1.334431 1.33443 70.09273 1.334431 1.334431V118.51851899999997l-0.351166 1.264197-0.421399 1.264198-0.491632 1.264197-0.561866 1.193964-0.561865 1.193965-0.632099 1.123731-0.702332 1.123731-0.772565 1.053498-0.842799 1.053498-0.842798 0.983265-0.913032 0.983264-0.983264 0.913032-1.053498 0.632099-1.053498 0.842798-1.053498 0.772565-1.123731 0.702332-1.123731 0.632099-1.193965 0.561866-1.193964 0.561865-1.264198 0.491633-1.264197 0.421399-1.264198 0.351166h-6.60192z m-108.791221 0h-6.60192l-1.264198-0.351166-1.264197-0.421399-1.264198-0.491632-1.193964-0.561866-1.193965-0.561865-1.123731-0.632099-1.123731-0.702332-1.053498-0.772565-0.983264-2.177229-0.983265-0.842799-0.983265-0.913031-0.913032-0.983265-0.842798-0.983265-0.842798-1.053498-0.772565-1.053498-0.702332-1.123731-0.632099-1.123731-0.561866-1.193964-0.561865-1.193964-0.491633-1.264198-0.421399-1.264198-0.351166-1.264197V36.34567900000002l0.351166-1.264198 0.421399-1.264197 0.491633-1.264198 0.561865-1.193964 0.561866-1.193964 0.632099-1.123731 0.702332-1.123732 0.772565-1.053497 0.842798-1.053498 0.842798-0.983265 0.913032-0.983265 0.983265-0.913031 0.983265-0.842799 1.053497-0.842798 1.053498-0.772565 1.123732-0.702332 1.123731-0.632099 1.193964-0.561866 1.193964-0.561865 1.264198-0.491633 1.264197-0.421399 1.264198-0.351166H129.967173l1.264197 0.351166 1.264198 0.421399 1.264197 0.491633 1.193965 0.561865 1.193964 0.561866 1.123731 0.632099 1.123731 0.702332 1.053498 0.772565 1.053498 0.842798 0.983265 0.842799 0.983265 0.913031 0.913031 0.983265 0.842798 0.983265 0.842799 1.053498 0.772565 1.053497 0.702332 1.123732 0.632099 1.123731 0.561865 1.193964 0.561866 1.193964 0.491632 1.264198 0.421399 1.264197 0.351166 1.264198v2.598628 1.334431 1.334431 70.092729 1.334431 1.334431V118.307819l-0.351166 1.264197-0.421399 1.264198-0.491632 1.264198-0.561866 1.193964-0.561865 1.193964-0.632099 1.123731-0.702332 1.123731-0.772565 1.053498-0.842799 1.053498-0.842798 0.983265-0.913031 0.983265-0.983265 0.913031-1.053498 0.842799-1.053498 0.842798-1.053498 0.772565-1.123731 0.702332-1.123731 0.632099-1.193965 0.561866-1.193964 0.561865-1.264198 0.491633-1.264197 0.421399-1.264198 0.351166h-6.60192z"  horiz-adv-x="1024" />

    
    <glyph glyph-name="icon-move-arrow" unicode="&#59159;" d="M755.960377 864.733585v-300.303616H374.643481a24.092986 24.092986 0 0 1-23.553224-24.534609v-311.638605a24.534609 24.534609 0 0 1 23.553224-24.534609h381.316896v-300.352685a31.600577 31.600577 0 0 1 53.97614-22.032079l492.556813 480.878339a30.913608 30.913608 0 0 1 0 44.162296L810.32907 886.814733a31.99313 31.99313 0 0 1-54.368693-22.081148zM258.300365 550.052688v-331.070016a16.241911 16.241911 0 0 0-17.419573-14.720765H175.815009a16.241911 16.241911 0 0 0-17.419572 14.720765V550.052688a16.241911 16.241911 0 0 0 17.419572 14.720766h65.065783a16.241911 16.241911 0 0 0 17.419573-14.720766z m0 0H99.414236v-331.070016a16.241911 16.241911 0 0 0-17.419572-14.720765H17.419572a16.241911 16.241911 0 0 0-17.419572 14.720765V550.052688a16.241911 16.241911 0 0 0 17.419572 14.720766h64.575092a16.241911 16.241911 0 0 0 17.419572-14.720766z m0 0"  horiz-adv-x="1312" />

    
    <glyph glyph-name="icon-workflow" unicode="&#59161;" d="M721.926023 108.55992700000002v-6.156581a224.380604 224.380604 0 0 1 22.953339-99.174487L512.535355-127.86616100000003l-232.277088 131.161939a225.250555 225.250555 0 0 1 22.819501 105.331068l209.457587-118.246504 209.457587 118.246504z m139.125343 204.170958V580.876748L680.034505 683.1295259999999a230.00183 230.00183 0 0 1 56.546857 86.32597l229.265717-129.422036v-307.360607a239.236701 239.236701 0 0 1-104.661874-20.075807z m-697.165861 0a239.236701 239.236701 0 0 1-104.661874 20.075807V640.03346l233.213959 131.697294a228.93112 228.93112 0 0 1 55.609985-86.995164L164.086263 580.943667v-268.212782z m348.64985 378.495883a103.524245 103.524245 0 0 0-104.661874 102.386616 104.728794 104.728794 0 0 0 209.323748 0 103.591165 103.591165 0 0 0-104.661874-102.386616z m-366.851915-637.339956a102.453535 102.453535 0 1 0 104.661874 102.386616 103.591165 103.591165 0 0 0-104.728793-102.386616z m732.700039 0a102.453535 102.453535 0 1 0 104.661875 102.386616 103.591165 103.591165 0 0 0-104.728794-102.386616zM513.137629 645.119331l226.455104-128.01673v-255.96654L513.137629 133.119331 286.481767 261.13606100000004V517.102601l226.655862 128.01673z"  horiz-adv-x="1024" />

    
    <glyph glyph-name="icon-full-clock" unicode="&#59162;" d="M949.991966 595.251314z m0 0a199.659656 199.659656 0 0 1-330.866536 222.111069 531.899367 531.899367 0 0 0 330.729218-222.111069zM402.987673 817.225065A199.728315 199.728315 0 0 1 72.121138 595.251314 531.281438 531.281438 0 0 0 402.987673 817.225065z m107.931561-61.792878a441.750423 441.750423 0 1 1 441.750423-441.750423 441.819082 441.819082 0 0 1-441.681764 441.956399zM753.147318 294.86926500000004a35.153282 35.153282 0 0 0-32.818884-35.015964H469.518006V592.436305a32.406932 32.406932 0 0 0 64.47057 0v-262.619734h186.065223a35.153282 35.153282 0 0 0 33.093519-34.947306z"  horiz-adv-x="1024" />

    
    <glyph glyph-name="icon-task-state" unicode="&#59163;" d="M933.037227 818.346667h-89.6v-115.541334a101.632 101.632 0 1 0-203.093334 0V818.346667H381.101227v-115.541334a103.68 103.68 0 0 0-101.546667-105.642666 103.594667 103.594667 0 0 0-101.546667 105.642666V818.346667h-87.04A91.648 91.648 0 0 1 0.00256 726.016v-761.685333A91.648 91.648 0 0 1 90.967893-128h841.898667A91.562667 91.562667 0 0 1 1024.00256-35.66933300000005V726.016A91.392 91.392 0 0 1 933.207893 818.346667zM742.40256 435.2L490.669227 164.69333300000005a42.666667 42.666667 0 0 0-31.232-13.824 41.984 41.984 0 0 0-30.549334 13.312L279.725227 322.38933299999997a46.165333 46.165333 0 0 0-13.994667 46.421334 44.032 44.032 0 0 0 34.133333 32.597333 42.666667 42.666667 0 0 0 42.666667-18.773333l115.541333-125.098667 221.866667 240.469333a42.069333 42.069333 0 0 0 56.661333-3.584 46.762667 46.762667 0 0 0 4.608-59.221333zM741.975893 896a46.677333 46.677333 0 0 0 45.909334-47.445333V705.706667a45.909333 45.909333 0 1 0-91.818667 0V848.554667A46.592 46.592 0 0 0 741.975893 896zM279.81056 896a46.592 46.592 0 0 0 45.909333-47.445333V705.706667a45.909333 45.909333 0 1 0-91.818666 0V848.554667A46.592 46.592 0 0 0 279.55456 896z"  horiz-adv-x="1024" />

    
    <glyph glyph-name="icon-full-setting" unicode="&#59164;" d="M1006.528595-18.585443000000055c9.724089 0 17.295517-11.357142 17.295516-25.015404v-59.383749c0-13.658262-7.422969-25.015404-17.295516-25.015404H589.50622c-9.798319 0-17.295517 11.357142-17.295517 24.941174v59.383749c0 13.658262 7.422969 24.941174 17.295517 24.941174h417.022375zM580.747117 895.998515a62.278706 62.278706 0 0 0 62.724084-59.383748l10.614845-74.229686a403.95795 403.95795 0 0 0 86.254895-48.917363l69.553216 28.578429a62.575625 62.575625 0 0 0 82.394951-24.050418l86.997192-149.572817a62.278706 62.278706 0 0 0-20.487393-83.434167l-59.754897-45.799716a359.19745 359.19745 0 0 0 1.410364-85.883746H703.968395a211.109226 211.109226 0 0 1-46.838931 172.732478 212.66805 212.66805 0 1 1-163.305309-347.24647v-294.617623H406.826963a62.352936 62.352936 0 0 0-62.724084 59.383749l-10.614845 74.229686a404.403328 404.403328 0 0 0-86.254895 49.214282l-69.627446-28.578429a61.31372 61.31372 0 0 0-44.537811-5.270308 64.060219 64.060219 0 0 0-37.78291 29.320726L8.36201 212.04619100000002A62.278706 62.278706 0 0 0 28.849403 295.480357l59.383749 45.873946a428.750665 428.750665 0 0 0 0 98.428564l-59.383749 45.873945a62.278706 62.278706 0 0 0-20.413164 83.434167l86.997192 150.315114a62.575625 62.575625 0 0 0 82.320722 23.976188l69.627445-28.504199a445.378115 445.378115 0 0 0 86.180665 48.694674l9.872548 72.967781a62.872544 62.872544 0 0 0 62.724085 59.383749z m425.633018-765.30806c9.798319 0 17.369746-11.357142 17.369747-24.941174v-59.383749c0-13.658262-7.422969-24.941174-17.295517-24.941175H589.50622c-9.798319 0-17.295517 11.357142-17.295517 24.941175v59.383749c0 13.658262 7.422969 24.941174 17.295517 24.941174h416.873915z m0 150.018195c9.798319 0 17.369746-11.357142 17.369747-24.941174v-59.383749c0-13.658262-7.422969-24.941174-17.295517-24.941175H589.50622c-9.798319 0-17.295517 11.357142-17.295517 24.941175v59.383749c0 13.658262 7.422969 25.015404 17.295517 25.015404h416.873915zM484.174296 521.806669a137.844527 137.844527 0 0 0 108.375341-34.887952 141.036403 141.036403 0 0 0 46.690472-103.92156 151.057411 151.057411 0 0 0-5.344537-36.298316h-74.229686a57.676466 57.676466 0 0 1-41.420165-17.443977 59.829127 59.829127 0 0 1-17.295516-42.38515v-42.904759a139.551809 139.551809 0 0 0-16.62745 278.138633z"  horiz-adv-x="1024" />

    
    <glyph glyph-name="icon-setting" unicode="&#59165;" d="M1005.386725 166.08507699999996H591.375841a20.013796 20.013796 0 0 0-18.601058 18.601058v42.068215a20.013796 20.013796 0 0 0 18.601058 18.601057H1005.386725a20.013796 20.013796 0 0 0 18.601058-18.601057v-41.832759a17.031348 17.031348 0 0 0-18.601058-18.836514z m0-148.729976H591.375841a20.013796 20.013796 0 0 0-18.601058 18.601058v41.832758a20.013796 20.013796 0 0 0 18.601058 18.601058H1005.386725a20.013796 20.013796 0 0 0 18.601058-18.601058v-37.280601a21.269564 21.269564 0 0 0-18.601058-23.545643z m0-144.099333H591.375841a20.013796 20.013796 0 0 0-18.601058 18.601057v41.832759a20.013796 20.013796 0 0 0 18.601058 18.601058H1005.386725a20.013796 20.013796 0 0 0 18.601058-18.601058v-37.202116a21.269564 21.269564 0 0 0-18.601058-23.545642zM503.079681 245.355407v-74.325745a217.247796 217.247796 0 0 0-218.425078 213.71595 218.503564 218.503564 0 0 0 436.850157 0 210.498046 210.498046 0 0 0-13.970415-74.325745H623.947314A137.428068 137.428068 0 0 1 503.079681 524.214302a141.273856 141.273856 0 0 1-144.099333-139.46869A143.863877 143.863877 0 0 1 503.079681 245.355407z m-18.601058-297.459952a16.403464 16.403464 0 0 0 18.601058-18.601058v-37.202115a20.013796 20.013796 0 0 0-18.601058-18.601058h-69.695102a69.38116 69.38116 0 0 0-65.064459 60.433816l-9.261286 74.325746a432.45497 432.45497 0 0 0-88.531617 51.17253l-69.695102-27.862344a66.712654 66.712654 0 0 0-83.665517 23.545643L10.426351 208.15329199999996A60.512302 60.512302 0 0 0 29.027409 291.661838l60.433816 46.463402a343.373956 343.373956 0 0 0 0 97.635931L29.027409 482.381544A58.62865 58.62865 0 0 0 10.426351 566.361003l88.29616 153.046677a66.712654 66.712654 0 0 0 83.665517 23.545643l69.695102-32.571473a432.45497 432.45497 0 0 0 88.29616 51.094045L349.719062 835.566184A69.38116 69.38116 0 0 0 414.783521 896h176.59232a69.38116 69.38116 0 0 0 65.064459-60.433816l9.261287-74.325746a336.545719 336.545719 0 0 0 88.531616-51.17253l69.695102 27.862344a66.712654 66.712654 0 0 0 83.665517-23.545643l88.29616-153.360619a60.512302 60.512302 0 0 0-18.758028-83.351575l-60.433816-46.463401a343.373956 343.373956 0 0 0 0-97.635932l32.571472-23.545643h-111.527861l4.630643 13.970415a245.581053 245.581053 0 0 1 0 116.158504l-4.630643 23.545642 92.926803 69.695103-79.034874 134.995018-106.897218-46.463402-18.601057 13.970415a329.638997 329.638997 0 0 1-102.031118 60.433816l-23.545643 9.261286L586.745198 821.674255H424.044807l-13.970414-116.158504-23.545643-4.630643a329.638997 329.638997 0 0 1-102.031118-60.433817l-18.601058-13.970414-106.740247 41.911244-79.034874-130.28589 93.319231-69.695102-4.630643-23.545643a245.502568 245.502568 0 0 1-4.630643-60.433816 265.045451 265.045451 0 0 1 4.630643-60.433816l4.630643-23.545643-92.926803-69.695102 79.034874-134.759562 106.50479 47.091286 18.601058-13.970415a329.638997 329.638997 0 0 1 102.031118-60.433816l23.545643-9.261286 13.970414-116.158504h60.433816z"  horiz-adv-x="1025" />

    
    <glyph glyph-name="icon-edge-transfer" unicode="&#59167;" d="M604.290311 658.164072V866.009639a29.758477 29.758477 0 0 0 49.314047 22.570066l424.193557-381.913332c21.487939-17.855086 17.855086-45.140131 0-45.140131H29.526592a29.449298 29.449298 0 0 0-29.372003 29.913066V598.33794a29.835771 29.835771 0 0 0 29.372003 29.913066h544.850653a29.913066 29.913066 0 0 1 29.913066 29.913066z m-86.647408-517.874787h544.850653a29.449298 29.449298 0 0 1 29.372002 29.913066V276.25073999999995a29.835771 29.835771 0 0 1-29.372002 29.913066H14.840591c-17.855086 0-21.487939-27.285045 0-45.140131l424.116262-381.604152a29.835771 29.835771 0 0 1 49.314047 22.570065v208.154746a29.603887 29.603887 0 0 0 29.372003 30.45413z"  horiz-adv-x="1092" />

    
    <glyph glyph-name="icon-automation" unicode="&#59168;" d="M49.016925 27.604561999999987a62.107939 62.107939 0 1 1 62.107939 62.107939 62.107939 62.107939 0 0 1-62.107939-62.107939zM297.076778 27.604561999999987a62.107939 62.107939 0 1 1 62.107939 62.107939 62.107939 62.107939 0 0 1-62.107939-62.107939zM545.211012 27.678942000000006a62.107939 62.107939 0 1 1 62.107939 62.10794 62.107939 62.107939 0 0 1-62.107939-62.10794zM793.345246 27.604561999999987a62.107939 62.107939 0 1 1 62.107939 62.107939 62.107939 62.107939 0 0 1-62.107939-62.107939zM902.684971 182.68845799999997h-42.992082a61.364132 61.364132 0 0 1 8.628169 31.016779V833.966441A62.033559 62.033559 0 0 1 806.287499 896H217.043074a62.033559 62.033559 0 0 1-62.033558-62.033559V213.92837899999995a61.066609 61.066609 0 0 1 8.628168-31.016779H0v-62.033558h901.048594a91.265199 91.265199 0 0 0 91.339581-89.703204v-6.694269a89.777584 89.777584 0 0 0-89.703204-89.703203H0v-62.033558h902.759352a151.736762 151.736762 0 0 1 151.736762 151.736761v6.694269a151.736762 151.736762 0 0 1-151.811143 151.51362zM372.12697 740.916104a31.016779 31.016779 0 0 0 31.01678 31.016779h248.134234a31.016779 31.016779 0 0 0 31.016779-31.016779v-31.01678a31.016779 31.016779 0 0 0-31.016779-31.016779H403.14375a31.016779 31.016779 0 0 0-31.01678 31.016779z"  horiz-adv-x="1055" />

    
    <glyph glyph-name="icon-title" unicode="&#59157;" d="M1060.882488 313.680197l-463.359841-208.54605a98.404255 98.404255 0 0 0-102.908195 0L31.254611 313.680197C6.824151 326.71432500000003 0 375.165796 0 401.575259c30.981645-17.674551 74.383244-37.396347 72.813689-36.440965L545.932066 146.69322599999998l473.25486 218.372826c0.818898 0 42.99215 21.496075 72.81369 36.440966-0.136483-27.023637-8.257223-77.181146-31.118128-87.826821z m0 218.372826l-463.359841-208.614291a98.608979 98.608979 0 0 0-102.908195 0L31.254611 532.1895059999999a62.782188 62.782188 0 0 0 0 102.976436l463.359841 244.987015a91.784829 91.784829 0 0 0 102.908195 0l463.359841-244.987015a63.942293 63.942293 0 0 0 0-102.976436zM545.932066 838.525637c2.661419-0.750657 3.548558-3.958007 0 0z m0-910.341721l473.25486 218.372827c0.818898 0 42.99215 21.496075 72.81369 36.440965 0-27.296603-8.393706-77.249387-31.254611-87.895063l-463.359841-208.61429a98.608979 98.608979 0 0 0-102.908195 0L31.254611 95.170887C6.824151 108.27325699999994 0 156.65648599999997 0 183.06595000000004c30.981645-17.742792 74.383244-37.396347 72.813689-36.440966L545.932066-71.81608400000005z"  horiz-adv-x="1092" />

    
    <glyph glyph-name="icon-edition" unicode="&#59137;" d="M512 896A512 512 0 1 1 1024.127617 384 512 512 0 0 1 512 896z m0.66999-833.467597L182.715852 585.284148h166.221336l246.715853-390.923231-82.951147-131.79661z m119.449651 191.425723l-84.067797 129.946161 126.979063 200.997009h166.221336l-209.164506-330.94317z"  horiz-adv-x="1024" />

    
    <glyph glyph-name="icon-progress" unicode="&#59144;" d="M986.364275-10.853988999999956a44.122428 44.122428 0 0 0 44.250878-44.250878v-19.267436a44.250878 44.250878 0 0 0-44.250878-44.186653H53.884596a44.250878 44.250878 0 0 0-44.250878 44.443552v19.267436a44.186653 44.186653 0 0 0 44.250878 44.186653h932.479679z m-106.163573 42.195685a44.250878 44.250878 0 0 0-44.250878 44.186653V318.105369a44.250878 44.250878 0 0 0 44.250878 44.186653h19.267436a44.186653 44.186653 0 0 0 44.250879-44.250878v-242.512795a44.250878 44.250878 0 0 0-44.250879-44.250878h-19.267436z m-735.052684-0.706473a44.250878 44.250878 0 0 0-44.186653 44.186654V463.060712a44.250878 44.250878 0 0 0 44.250878 44.250879h19.267436a44.250878 44.250878 0 0 0 44.186653-44.250879v-387.981936a44.250878 44.250878 0 0 0-44.250878-44.250878h-19.267436z m250.476668 0a44.250878 44.250878 0 0 0-44.250878 44.186654V842.179629A44.250878 44.250878 0 0 0 395.367787 886.366282h19.267436a44.186653 44.186653 0 0 0 44.250878-44.250878v-767.357752a44.250878 44.250878 0 0 0-44.250878-44.250878h-19.267436z m240.200703 0.706473a44.250878 44.250878 0 0 0-44.250878 44.250878V662.2860009999999a44.250878 44.250878 0 0 0 44.250878 44.186653h19.267436a44.250878 44.250878 0 0 0 44.250878-44.250878v-586.693427a44.250878 44.250878 0 0 0-44.250878-44.250878h-19.267436z"  horiz-adv-x="1040" />

    
    <glyph glyph-name="icon-task-status" unicode="&#59145;" d="M511.984032 896A511.984032 511.984032 0 1 0 0 384.015968 511.984032 511.984032 0 0 0 511.984032 896z m0-204.8a307.184032 307.184032 0 1 1 307.184033-307.184032 307.184032 307.184032 0 0 1-307.184033 307.184032z"  horiz-adv-x="1024" />

    
    <glyph glyph-name="icon-general-document" unicode="&#59146;" d="M1054.086721-127.56905700000004H77.742128s-77.56975-12.152594-77.569751 91.532306V802.061308A94.031775 94.031775 0 0 0 97.048377 895.403575h341.479279s41.542911 8.618861 76.104544-44.990455c32.837861-51.713167 51.713167-84.723405 51.713167-84.723406a53.523128 53.523128 0 0 1 39.73295-13.876366h440.596183a69.898964 69.898964 0 0 0 77.56975-77.569751v-715.365476s12.152594-86.188612-70.847038-86.188612z m-72.570811 656.671032a38.353932 38.353932 0 0 1-38.095367 38.009178H183.1508a38.784875 38.784875 0 0 1-39.819139-38.009178v-3.533733a39.043441 39.043441 0 0 1 39.819139-39.646761h760.269743a38.784875 38.784875 0 0 1 38.095367 39.646761v3.533733z"  horiz-adv-x="1125" />

    
    <glyph glyph-name="icon-related-tasks" unicode="&#59148;" d="M692.819178 428.535047L528.223154 263.939023 430.123617 361.42639399999996a50.35062 50.35062 0 0 1-71.011209-71.011209L488.202828 161.32476499999996a50.35062 50.35062 0 0 1 18.058885-11.631147 49.738455 49.738455 0 0 1 58.767897 8.417277l199.489464 199.489464a50.35062 50.35062 0 1 1-71.011209 71.011209M903.863267-20.18233399999997H172.401901a64.58347 64.58347 0 0 0-64.58347 64.58347V625.4228069999999a64.58347 64.58347 0 0 0 64.58347 64.58347h43.234196v-64.58347a53.56449 53.56449 0 1 1 107.128979 0.612165v64.583471h430.658496v-64.583471a53.947093 53.947093 0 1 1 107.817666 0v64.583471h42.622029a64.58347 64.58347 0 0 0 64.583471-64.583471v-581.098191a64.58347 64.58347 0 0 0-64.583471-65.195636z m-43.234195 819.919294V842.052907a53.947093 53.947093 0 1 1-107.817665 0v-41.933343H322.841596V842.052907A53.947093 53.947093 0 0 1 215.023931 842.052907v-41.933343h-107.128979A107.817666 107.817666 0 0 1 0.000765 691.919295v-690.828875a129.09042 129.09042 0 0 1 129.09042-129.09042h818.771485a129.09042 129.09042 0 0 1 129.09042 129.09042V669.957854a129.09042 129.09042 0 0 1-129.09042 129.09042z"  horiz-adv-x="1077" />

    
    <glyph glyph-name="icon-comment" unicode="&#59149;" d="M906.776181 889.429158H139.367556A132.928131 132.928131 0 0 1 6.570842 756.632444V232.344969a132.99384 132.99384 0 0 1 132.796714-132.796714H545.379877l207.835729-207.835729a44.287474 44.287474 0 0 1 62.685831 62.620123l-212.106776 212.106776a73.462012 73.462012 0 0 1-52.238193 21.683778H139.367556a44.287474 44.287474 0 0 0-44.287474 44.287475V756.632444a44.287474 44.287474 0 0 0 44.287474 44.287474H906.776181a44.287474 44.287474 0 0 0 44.287474-44.287474V232.344969a44.287474 44.287474 0 0 0-44.287474-44.287474h-100.336756a44.287474 44.287474 0 1 1 0-88.50924H906.776181a132.99384 132.99384 0 0 1 132.731006 132.796714V756.632444A132.99384 132.99384 0 0 1 906.776181 889.429158z"  horiz-adv-x="1046" />

    
    <glyph glyph-name="icon-cloud-documents" unicode="&#59150;" d="M732.849741 39.413768000000005H456.763879a154.623242 154.623242 0 0 0-36.287195 303.182827 169.403405 169.403405 0 0 0 165.045152 161.065877 164.950407 164.950407 0 0 0 148.464841-97.302738A180.014804 180.014804 0 0 0 898.46336 223.31310099999996a175.467061 175.467061 0 0 0-165.613619-183.709844m-615.840118 711.437454a44.529978 44.529978 0 0 0 44.529977 44.435233H416.876388A44.529978 44.529978 0 0 0 416.876388 706.510733H161.065877a44.435233 44.435233 0 0 0-44.529978 44.435233m953.604738-19.612139H693.151739L581.163583 843.227239A159.07624 159.07624 0 0 1 466.617321 896H137.284974A137.474463 137.474463 0 0 1 0 758.715026v-749.335307a137.474463 137.474463 0 0 1 137.284974-137.284974H1070.61436a137.474463 137.474463 0 0 1 137.284974 137.284974v584.574389A137.474463 137.474463 0 0 1 1070.61436 731.239082"  horiz-adv-x="1208" />

    
    <glyph glyph-name="icon-picture" unicode="&#59151;" d="M972.993208 896H144.90566A143.456604 143.456604 0 0 1 1.449057 752.543396v-678.448302a43.181887 43.181887 0 0 1 0-21.832452v-36.806038A143.456604 143.456604 0 0 1 144.90566-128h828.087548a143.456604 143.456604 0 0 1 143.456603 143.456604v737.086792A143.456604 143.456604 0 0 1 972.993208 896zM144.90566 809.056604h828.087548a56.32 56.32 0 0 0 56.126792-56.126793v-544.941886a964.685283 964.685283 0 0 1-112.64 130.028679 102.979623 102.979623 0 0 1-87.619623 27.435471 312.223396 312.223396 0 0 1-173.886792-132.250566c-15.553208-19.320755-29.657358-38.641509-41.153208-55.257358A1440.458868 1440.458868 0 0 1 347.773585 470.943396a100.661132 100.661132 0 0 1-92.643019 14.007547 222.188679 222.188679 0 0 1-104.525283-91.387169 825.962264 825.962264 0 0 1-61.729811-106.264151V752.64A56.416604 56.416604 0 0 0 144.90566 809.056604zM745.298113 598.170566a98.246038 98.246038 0 1 1 98.246038 98.246038 98.246038 98.246038 0 0 1-98.246038-98.246038z"  horiz-adv-x="1116" />

    
    <glyph glyph-name="icon-folder" unicode="&#59152;" d="M1128.690096-127.913906H102.193375a102.451656 102.451656 0 0 0-102.107281 102.107281v819.61325A102.365562 102.365562 0 0 0 102.193375 895.913906h411.098032a102.451656 102.451656 0 0 0 102.107281-102.107281 150.061544 150.061544 0 0 1 153.247016-153.247015h360.044392a102.451656 102.451656 0 0 0 101.935093-102.021187v-564.345048a102.451656 102.451656 0 0 0-102.107281-102.107281zM666.538423 793.8066249999999h411.098032a51.139734 51.139734 0 0 0 51.053641-51.05364v-51.053641H768.645704a182.777199 182.777199 0 0 0-102.107281 102.107281z"  horiz-adv-x="1230" />

    
    <glyph glyph-name="icon-relation" unicode="&#59153;" d="M329.09564 875.660344a34.272321 34.272321 0 0 0 31.628166-21.051545l1.627172-4.983216L401.606515 692.603436h476.354752a125.800775 125.800775 0 0 0 125.49568-117.970007v-144.920051a34.272321 34.272321 0 0 0-68.239547-4.678121V566.90436a57.154434 57.154434 0 0 1-50.849141 56.849339h-509.508392a34.272321 34.272321 0 0 0-31.628166 21.051545l-1.627172 4.983216L302.247294 807.115702H146.140431a57.154434 57.154434 0 0 1-56.84934-50.849141v-738.12613a57.256133 57.256133 0 0 1 50.849141-56.84934H283.331413a34.272321 34.272321 0 0 0 4.678121-68.239547H146.140431A125.800775 125.800775 0 0 0 20.441355 10.411362000000054V750.36806A125.800775 125.800775 0 0 0 138.51306 875.660344H329.299037zM626.359718 372.558943a240.109643 240.109643 0 1 1 0-480.219287h205.837322A171.565001 171.565001 0 0 1 1003.762042 63.90465800000004v9.152845a171.463303 171.463303 0 0 1-153.259311 161.395174L843.688946 234.96116800000004l-2.644155 5.593405a240.211342 240.211342 0 0 1-214.685073 132.00437z m0-68.544642a171.565001 171.565001 0 0 0 161.903665-114.715662 34.272321 34.272321 0 0 1 33.763829-22.882113h11.491906a102.918661 102.918661 0 0 0-1.423776-205.837323H626.25802a171.463303 171.463303 0 0 0 0 343.028305z"  horiz-adv-x="1024" />

    
    <glyph glyph-name="icon-list" unicode="&#59154;" d="M0 383.98400300000003a511.888024 511.888024 0 1 1 511.888024 511.888025 511.888024 511.888024 0 0 1-511.888024-511.888025z m259.143312 132.674978a37.9437 37.9437 0 0 0 37.9437 37.9437h278.115163a37.9437 37.9437 0 0 0 0-75.8874h-278.019184a37.9437 37.9437 0 0 0-37.911707 37.9437z m0-151.518855a37.751742 37.751742 0 0 0 37.9437 37.687755h480.470897a37.815728 37.815728 0 1 0 0-75.631455H297.182991a37.9437 37.9437 0 0 0-37.911707 37.9437z m0-151.742807a37.9437 37.9437 0 0 0 38.039679 38.039679h480.374918a37.9437 37.9437 0 1 0 0-75.855406H297.182991a37.9437 37.9437 0 0 0-37.911707 37.815727z"  horiz-adv-x="1024" />

    
    <glyph glyph-name="icon-plus" unicode="&#59131;" d="M513.087664-127.997523a511.973064 511.973064 0 1 0 362.678548 149.542205 510.920386 510.920386 0 0 0-362.678548-149.542205z m0 948.277153a437.975989 437.975989 0 0 1-311.035401-128.179033 435.932556 435.932556 0 0 1 0-618.603158 441.443635 441.443635 0 0 1 622.070803 0 435.932556 435.932556 0 0 1 0 618.541236 438.347523 438.347523 0 0 1-311.035402 128.240955z m256.543832-400.822647H549.869473V639.34285a36.657965 36.657965 0 0 1-73.315929 0v-219.885867H256.543832a36.657965 36.657965 0 0 1 0-73.31593h219.885867v-219.885867a36.657965 36.657965 0 0 1 73.31593 0V346.14105300000006h219.885867a36.719887 36.719887 0 1 1 3.158034 73.31593h-3.158034z"  horiz-adv-x="1028" />

    
    <glyph glyph-name="icon-bosom" unicode="&#59141;" d="M511.999853-127.970689a184.423174 184.423174 0 0 0-130.872452 54.224868L54.195411 253.30341199999998a184.804213 184.804213 0 0 0 0 261.451798L381.127401 841.804442a184.921456 184.921456 0 0 0 261.627662 0l327.049233-327.049232a184.804213 184.804213 0 0 0 0-261.451798L642.755063-73.74582099999998a183.807648 183.807648 0 0 0-130.75521-54.224868z m-157.252118 376.906801v-68.000916h204.413099v68.000916H490.984053v136.236318h170.441951l102.147928 85.294252-102.147928 85.001145H490.984053v34.117701h-68.059537v-340.79597z"  horiz-adv-x="1024" />

    
    <glyph glyph-name="icon-milestone" unicode="&#59120;" d="M283.809684 136.623158H179.2v-137.000421h719.494737V136.623158h-102.022737V699.661474l-512.916211-4.581053V136.623158z m187.877053 479.663158l266.509474-160.229053H507.957895v-235.304421h-36.325053V616.2324209999999z"  horiz-adv-x="1024" />

    
    <glyph glyph-name="icon-milepost" unicode="&#59126;" d="M170.666667 42.66666699999996V896h170.666666v-85.333333h426.666667l256-213.333334-256-213.333333h-426.666667v-341.333333h170.666667v-170.339092H0v170.339092z"  horiz-adv-x="1024" />

    
    <glyph glyph-name="icon-Member-management" unicode="&#59127;" d="M205.766352 652.2460140000001A243.753986 243.753986 0 1 1 449.520338 896 243.753986 243.753986 0 0 1 205.766352 652.2460140000001zM964.602668 641.832737A224.926782 224.926782 0 0 1 696.439961 847.265864a251.834689 251.834689 0 0 0 69.643996-191.604296 286.739993 286.739993 0 0 0-121.876993-226.342987 648.205662 648.205662 0 0 0 330.808981-417.863976h139.287993V115.92059900000004a426.444517 426.444517 0 0 1-229.841849 344.721119 244.33713 244.33713 0 0 1 80.140579 181.191019zM901.956394-127.75008100000002a421.696062 421.696062 0 0 1 8.330622 69.394077 454.935242 454.935242 0 0 1-909.870485 0 428.777091 428.777091 0 0 1 6.914416-69.643996"  horiz-adv-x="1114" />

    
    <glyph glyph-name="icon-administration" unicode="&#59128;" d="M274.36726596-37.82854760999999H161.03722717A68.31226016 68.31226016 0 0 0 90.12910092 30.961897980000003V736.76416919A68.31226016 68.31226016 0 0 0 160.96891473 805.6912396499999h113.33003962a68.31226016 68.31226016 0 0 0 70.90812543-68.92707046v-705.80227121a68.31226016 68.31226016 0 0 0-70.83981382-68.79044559z m793.7884627 327.76222358H484.56409107a68.31226016 68.31226016 0 0 0-70.83981382 68.72213397V723.03340521A68.31226016 68.31226016 0 0 0 484.56409107 792.02878811h583.59163759a68.31226016 68.31226016 0 0 0 70.56656489-68.99538289v-364.37759528a69.95175457 69.95175457 0 0 0-70.56656489-68.72213397z m0-323.11699009H472.74606961a68.31226016 68.31226016 0 0 0-70.83981381 68.72213397V159.25232300000005a68.31226016 68.31226016 0 0 0 70.83981381 68.79044558h595.40965905a68.31226016 68.31226016 0 0 0 70.83981382-68.72213396v-123.71350232a68.31226016 68.31226016 0 0 0-70.83981382-68.85875886z"  horiz-adv-x="1273" />

    
    <glyph glyph-name="icon-back" unicode="&#59129;" d="M0.021137 384.021137A511.978863 511.978863 0 1 1 512 896 511.978863 511.978863 0 0 1 0.021137 384.021137z m63.87582 0a448.103043 448.103043 0 1 0 448.103043-448.103043 448.103043 448.103043 0 0 0-448.103043 448.103043z m534.595385 201.392726a32.001321 32.001321 0 1 1-45.233043 45.233043l-224.051521-224.051521a32.001321 32.001321 0 0 1 0-45.233043l224.051521-224.051522a32.001321 32.001321 0 1 1 45.233043 45.233043l-201.265904 201.477274z"  horiz-adv-x="1024" />

    
    <glyph glyph-name="icon-down" unicode="&#59132;" d="M206.4796294 603.52572434a80.462827 80.462827 0 0 0 27.05562554 60.34711995 92.23051513 92.23051513 0 0 0 125.01911704-2.11214885L743.46841955 283.18309562 1122.750069 663.16879467a91.42588666 91.42588666 0 0 0 96.85712826 20.11570705 84.38538931 84.38538931 0 0 0 55.8210857-78.04894218 81.36803373 81.36803373 0 0 0-24.13884824-57.5309209l-442.54554671-443.45075403a91.12415129 91.12415129 0 0 0-101.98663328-17.299508 40.2314135 40.2314135 0 0 0-5.83355464 3.21851329l-2.11214944 1.10636386a63.26389728 63.26389728 0 0 0-15.18735855 10.05785293 5.431241 5.431241 0 0 0-0.80462848 0.80462847 34.49843712 34.49843712 0 0 0-4.02314117 3.21851329L231.62426261 544.98901785A81.26745487 81.26745487 0 0 0 206.4796294 603.52572434z m0 0"  horiz-adv-x="1792" />

    
    <glyph glyph-name="icon-describe" unicode="&#59133;" d="M743.831422 638.866182h162.540968L701.961128 851.862069v-170.801645a41.870294 41.870294 0 0 1 41.870294-41.870294z m0 0M743.831422 592.541601a88.194875 88.194875 0 0 0-88.194875 88.194875V896H157.485329a80.987029 80.987029 0 0 1-80.98703-80.987029v-862.025942a80.987029 80.987029 0 0 1 80.98703-80.987029h708.960455a80.987029 80.987029 0 0 1 80.98703 80.987029v639.797533H743.831422zM248.433763 440.44796a21.380576 21.380576 0 0 0 18.869978 10.528313h481.791838a21.299589 21.299589 0 0 0 0-42.599177H267.303741a21.380576 21.380576 0 0 0-18.869978 32.394812zM768.046544 263.4913a21.218602 21.218602 0 0 0-18.869978-10.447327h-481.872825a21.299589 21.299589 0 0 0 0 42.518191h481.791838a21.137615 21.137615 0 0 0 18.869978-10.447327 20.894654 20.894654 0 0 0 0-21.623537z m0-155.333122a21.380576 21.380576 0 0 0-19.112939-10.36634h-481.872825a21.299589 21.299589 0 1 0 0 42.51819h481.791838a21.299589 21.299589 0 1 0 19.112939-32.394811z"  horiz-adv-x="1024" />

    
    <glyph glyph-name="icon-right" unicode="&#59136;" d="M1024 384A512 512 0 1 0 512 896a512 512 0 0 0 512-512z m-63.878458 0a448.121542 448.121542 0 1 1-448.121542-448.121542 448.121542 448.121542 0 0 1 448.121542 448.121542zM425.37726 585.40104a32.002642 32.002642 0 1 0 45.234911 45.234911l224.060771-224.060771a32.002642 32.002642 0 0 0 0-45.234911l-224.060771-224.060771a32.002642 32.002642 0 1 0-45.234911 45.23491l201.358765 201.485592z"  horiz-adv-x="1024" />

    
    <glyph glyph-name="icon-tips" unicode="&#59139;" d="M1024 384.034913a511.965087 511.965087 0 1 1-511.965087-511.965087 511.965087 511.965087 0 0 1 511.965087 511.965087m-431.944357-259.404023c-22.763314-9.077395-41.127583-15.850528-54.813502-20.947835a145.517627 145.517627 0 0 0-47.691237-6.982612 94.614388 94.614388 0 0 0-64.658984 20.3194 65.915854 65.915854 0 0 0-23.112445 51.6015 187.133992 187.133992 0 0 0 1.675827 24.858098 255.773065 255.773065 0 0 0 5.655915 28.419229L438.089056 323.425844c2.583566 9.70583 4.748176 18.992704 6.424002 27.930446a121.287965 121.287965 0 0 1 2.653393 23.671054 37.077668 37.077668 0 0 1-8.030004 27.092533 45.247324 45.247324 0 0 1-30.863143 7.820525 82.604296 82.604296 0 0 1-22.763314-3.421479 267.084896 267.084896 0 0 1-19.97027-6.633481l7.401569 31.072621q27.930447 11.451483 53.905762 19.621139a160.600068 160.600068 0 0 0 48.878281 8.169656 93.008387 93.008387 0 0 0 63.821071-19.97027 66.404637 66.404637 0 0 0 22.414183-51.671326q0-6.982612-1.536174-23.252097a152.639891 152.639891 0 0 0-5.655916-30.583839l-28.628707-101.03839a283.633686 283.633686 0 0 1-6.284351-27.930447 146.634845 146.634845 0 0 1-2.862871-23.671054 33.656188 33.656188 0 0 1 9.077395-27.441663 51.950631 51.950631 0 0 1 31.142449-7.331743 94.684214 94.684214 0 0 1 23.601227 3.630958 126.664576 126.664576 0 0 1 19.06253 6.493829l-7.750699-31.2821M584.235118 534.998977a63.890897 63.890897 0 1 0 0 90.215343 63.960723 63.960723 0 0 0 0-90.215343m2.583566-0.209478z"  horiz-adv-x="1024" />

    
    <glyph glyph-name="icon-modify" unicode="&#59140;" d="M453.952178 842.955066a50.429735 50.429735 0 0 0 0-100.859471H161.459713a50.588569 50.588569 0 0 1-50.429736-50.429735v-665.751925a50.588569 50.588569 0 0 1 50.429736-50.429735h612.939682a50.588569 50.588569 0 0 1 50.429735 50.429735V336.03695400000004a50.429735 50.429735 0 0 0 100.859471 0v-310.202436a152.798127 152.798127 0 0 0-153.830547-153.830547H161.459713A152.798127 152.798127 0 0 0 7.629165 25.834518000000003V691.586443A152.798127 152.798127 0 0 0 161.459713 845.337573H453.952178zM892.730585 880.757513l108.404077-108.404077a51.779823 51.779823 0 0 0 0-73.14297l-441.160914-441.557999a54.877082 54.877082 0 0 0-20.171894-12.627288l-156.371889-47.650144a50.429735 50.429735 0 0 0-63.057023 35.340524 61.468685 61.468685 0 0 0 0 30.257841L368.023086 419.345288a54.877082 54.877082 0 0 0 12.627288 20.171894L819.42878 880.83693a51.779823 51.779823 0 0 0 73.381222-0.079417zM461.576201 376.777827l-15.168629-52.971077 52.971076 15.168629 393.431354 395.178525-35.340524 35.340524z"  horiz-adv-x="1024" />

    
    <glyph glyph-name="icon-Online-file" unicode="&#59142;" d="M597.263819-84.325381a29.315024 29.315024 0 0 0 28.778774 28.778773h126.197603a199.187245 199.187245 0 0 1 57.557546 141.689282 201.510997 201.510997 0 0 1-55.352961 139.484697 193.765158 193.765158 0 0 1-123.993018 59.583382 233.209356 233.209356 0 0 1-217.002677 132.870941 249.29687 249.29687 0 0 1-161.649714-53.148376 259.604795 259.604795 0 0 1-79.722565-130.666357 178.094728 178.094728 0 0 1-106.296753-50.943791 169.097638 169.097638 0 0 1-50.943792-121.788432 176.426394 176.426394 0 0 1 48.739206-121.788433 180.41848 180.41848 0 0 1 117.379263-53.148376h442.823693a28.89794 28.89794 0 0 0-26.514605 29.07669z m-398.553241 26.574188a120.418015 120.418015 0 0 0-88.540905 37.656697 119.166764 119.166764 0 0 0-37.656697 86.336321 110.884674 110.884674 0 0 0 37.656697 84.131735 129.176772 129.176772 0 0 0 90.805074 37.656697 19.305016 19.305016 0 0 1 17.875014 13.287094 183.338066 183.338066 0 0 0 64.230886 115.115094 207.409752 207.409752 0 0 0 128.402188 46.475038 203.060165 203.060165 0 0 0 181.550564-119.583847c2.204585-6.613755 8.877924-8.877924 15.49168-11.08251a151.34179 151.34179 0 0 0 104.092168-42.065867 139.18678 139.18678 0 0 0 44.270452-101.828 151.34179 151.34179 0 0 0-154.916792-148.36262l-403.021995 2.204585zM995.936227 881.104155H296.129408a50.109624 50.109624 0 0 1-50.943792-50.943792v-347.609449a28.778773 28.778773 0 0 1 57.557547 0V823.546608h686.400559V-55.54660799999999h-363.160713a29.315024 29.315024 0 0 1-28.778773-28.778773 28.89794 28.89794 0 0 1 26.574188-28.778774h372.157803a50.109624 50.109624 0 0 1 50.943792 50.943792V827.955778a52.016292 52.016292 0 0 1-50.943792 53.148377zM440.023275 641.996043h407.431165a28.778773 28.778773 0 1 1 0 57.557547H440.023275a29.315024 29.315024 0 0 1-28.778774-28.778773 27.885023 27.885023 0 0 1 28.778774-28.778774z m0-161.649715h407.431165a28.778773 28.778773 0 1 1 0 57.557547H440.023275a29.315024 29.315024 0 0 1-28.778774-28.778773 27.885023 27.885023 0 0 1 28.778774-28.778774z"  horiz-adv-x="1061" />

    
    <glyph glyph-name="project-description" unicode="&#59143;" d="M979.472931 509.134305a42.71264 42.71264 0 0 0 45.091013-39.378014v-469.471254a46.243421 46.243421 0 0 0-90.721452 0V469.756291a42.516486 42.516486 0 0 0 45.728516 39.378014m-250.930633-220.428609H187.499174a41.167924 41.167924 0 0 0-43.840529 37.490027 39.990997 39.990997 0 0 0 39.378014 41.290521h544.328712a41.167924 41.167924 0 0 0 43.840529-37.490027 39.990997 39.990997 0 0 0-39.378014-41.290521z m0-198.189593H187.499174a41.167924 41.167924 0 0 0-43.840529 37.490027 39.990997 39.990997 0 0 0 39.378014 41.29052h544.328712a41.167924 41.167924 0 0 0 43.840529-37.490027 39.990997 39.990997 0 0 0-39.378014-41.29052 2.84424 2.84424 0 0 0-3.162991 0zM167.148145 685.746905a81.134401 81.134401 0 0 0 83.218543 79.39353h104.182554a81.52671 81.52671 0 0 0 83.218543-79.39353v-99.107056a80.913727 80.913727 0 0 0-82.581041-79.39353h-104.182554a81.52671 81.52671 0 0 0-83.218542 79.39353c-0.662021 0-0.662021 99.107056-0.662022 99.107056z m727.978355-714.639849V796.917463c0 43.840529-58.454038 99.107056-104.182554 99.107056H104.133515C58.405 896.024519-0.049039 840.7579920000001-0.049039 796.917463v-825.810407c0-43.840529 58.454038-99.107056 104.182554-99.107056h834.073415a18.070732 18.070732 0 0 1 17.7765 17.163518 16.991883 16.991883 0 0 1-7.625506 14.711587c-26.039509 19.051505-53.354022 44.478031-53.354021 67.330029z"  horiz-adv-x="1024" />

    
    <glyph glyph-name="file-manage" unicode="&#59284;" d="M218.08994663 637.51003111c9.81431008 11.99921072 19.63079274 23.17645849 29.4472754 33.53464007 7.63158202 9.26899015 15.67233503 17.99266041 24.12588 26.1768043 8.45282078 8.17762612 14.86123503 14.17252421 19.22379435 17.9933846a132.1260184 132.1260184 0 0 0 19.21872495 13.08622957c6.81613685 3.81579101 15.94825388 5.72404861 27.40142048 5.72404861h353.33833695c7.0869863 0 15.26968181-1.49908661 24.53939616-4.49943245 9.27043855-3.00034583 18.26495826-9.13211703 26.98935271-18.40255558 4.36183512-5.45392334 10.08660793-12.26933599 17.1779394-20.44768632a5974.35262799 5974.35262799 0 0 0 20.44696213-23.7181574c7.63303042-9.26971435 15.26968181-19.08547282 22.90198802-29.4472754H218.08994663z m664.1482383-244.55316961c0-17.45385826-5.72404861-32.17315077-17.17793942-44.17018891-11.44882143-11.99558974-27.80914307-17.99555719-49.07372295-17.9955572H211.54828024c-20.72215677 0-37.21717894 5.99924327-49.48723911 17.9955572C149.79242933 360.78371073000005 143.65920972 375.50372744000003 143.65920972 392.9568615V509.91530979c0 17.44806468 5.45319915 32.44617283 16.35670067 44.98635827 10.90712249 12.54018546 28.63038183 18.81172657 53.16470861 18.81172658h601.98900998c25.0810951 0 42.52915978-6.27154112 52.34419404-18.81172658 9.81648266-12.54018546 14.72363769-27.53756941 14.72363771-44.98635827v-116.95844829z m-308.35559965 58.89020562c0 7.0869863-1.77066028 12.13101446-5.31632602 15.13208449-3.54566574 2.99527644-8.31594765 4.49508727-14.31084574 4.49508726H471.64270533c-5.99489809 0-10.90277731-1.90898181-14.71929253-5.72404861-3.82086038-3.81723939-5.72911798-8.45426917-5.72911799-13.90239895 0.54459572-7.09205568 2.59189904-12.26933599 6.13756478-15.53980708 3.53987217-3.27481628 8.31522345-4.90787923 14.31084574-4.90787923h82.6127082c12.53946126-0.00144839 19.08112764 6.81468844 19.62717175 20.44696212z m305.90129794-354.97719348c0-17.44734048-6.67853951-32.44617283-20.03923954-44.98563408-13.35707903-12.54163385-30.39742113-18.54160131-51.12030208-17.99410881H209.09470272c-17.45385826 0-33.12546909 6.13104701-47.0336616 18.4018314C148.15864217 64.56129812999995 141.20563221 81.60164023000004 141.20563221 103.41154002999997V213.01215255c0 17.9941088 5.59152067 33.12691747 16.76949262 45.39552927 11.17797196 12.26933599 29.03375924 18.40327978 53.57315541 18.40327978h600.34725666c22.90126383 0 39.94088173-6.13394379 51.11957789-18.40327978 11.17797196-12.2678876 16.76876842-27.12622583 16.76876843-44.57935988v-116.9584483z m-308.35559965 58.06824268c0 5.45392334-1.77066028 10.0916773-5.31632603 13.90746831-3.54132056 3.81723939-8.31522345 5.72477281-14.31084572 5.72477281H469.18912781c-5.99634648 0-10.90277731-1.90825761-14.71929253-5.72477281-3.82158457-3.8165152-5.72911798-8.45354498-5.72911799-13.90746831 0-5.44885398 1.90680922-10.08660793 5.72911799-13.90239895 3.8165152-3.81506681 8.72294604-5.72404861 14.71929253-5.72404861H551.80183602c5.99489809 0 10.76952517 1.90970599 14.31084573 5.72404861 3.54494154 3.81579101 5.31560183 8.45354498 5.31560182 13.90239895z m0 0"  horiz-adv-x="1024" />

    
    <glyph glyph-name="icon-task" unicode="&#59119;" d="M695.5 313.79999999999995H352.6c-19.7 0-35.6 15.6-35.6 34.9 0 19.3 15.9 34.9 35.6 34.9h342.8c19.7 0 35.6-15.6 35.6-34.9 0.1-19.3-15.8-34.9-35.5-34.9zM547.8 134.29999999999995H352.6c-19.7 0-35.6 15.6-35.6 34.9 0 19.3 15.9 34.9 35.6 34.9h195.1c19.7 0 35.6-15.6 35.6-34.9 0-19.3-15.8-34.9-35.5-34.9zM836 721h-16c-16-0.2-28.9-10.1-28.9-26.9v-116.9c0-16.7-12.9-26.7-25.8-26.7l-479-3.4c-16 0-25.8 13.3-25.8 26.7v117c0 16.7-12.9 26.7-25.8 26.7h-16c-41.8 3.4-61-23.3-61-60.1v-650.8c0-30.1 28.9-70.1 67.6-70.1h601.1c32.1 0 67.6 36.6 67.6 70.1V660.9c-0.1 30-22.6 60.1-58 60.1zM353.6 620.8h340.8c16 0 25.8 13.3 25.8 26.7v80c0 16.8-12.9 26.8-25.8 26.8h-16c-16 0-25.8 13.3-25.8 26.7-0.3 27.7-23.2 50-51.4 50H450.1c-28.2 0-51.1-22.3-51.4-50 0-16.7-12.9-26.7-25.8-26.7h-19.3c-16 0-25.8-13.3-25.8-26.7v-80.1c0-16.7 12.9-26.7 25.8-26.7z m173.9 160.1c32.1 0 54.7-26.7 54.7-56.7-0.1-36.6-25.8-56.7-54.7-56.7-28.9 0-54.7 26.7-54.7 56.7 0 30.1 25.8 56.7 54.7 56.7zM836 721h-16c-16-0.2-28.9-10.1-28.9-26.9v-116.9c0-16.7-12.9-26.7-25.8-26.7l-479-3.4c-16 0-25.8 13.3-25.8 26.7v117c0 16.7-12.9 26.7-25.8 26.7h-16c-41.8 3.4-61-23.3-61-60.1v-650.8c0-30.1 28.9-70.1 67.6-70.1h601.1c32.1 0 67.6 36.6 67.6 70.1V660.9c-0.1 30-22.6 60.1-58 60.1zM547.8 134.29999999999995H352.6c-19.7 0-35.6 15.6-35.6 34.9 0 19.3 15.9 34.9 35.6 34.9h195.1c19.7 0 35.6-15.6 35.6-34.9 0-19.3-15.8-34.9-35.5-34.9z m147.7 179.5H352.6c-19.7 0-35.6 15.6-35.6 34.9 0 19.3 15.9 34.9 35.6 34.9h342.8c19.7 0 35.6-15.6 35.6-34.9 0.1-19.3-15.8-34.9-35.5-34.9z"  horiz-adv-x="1024" />

    
    <glyph glyph-name="file-management" unicode="&#59344;" d="M862.1 51.10000000000002c0-31-25.1-56-56-56H106l98 462c0 30.9 25 56 55.9 56h644.2c30.9 0 55.9-25.1 55.9-56l-97.9-406zM218 555.1h630v55c0 30.9-25.1 56-56 56H456v50.8c0 30.9-25.1 56-56 56H119.9c-30.9 0-56-25.1-56-56v-665.8l97.9 448c0.1 31 25.3 56 56.2 56z"  horiz-adv-x="1024" />

    
    <glyph glyph-name="icon-working-hours" unicode="&#59114;" d="M865.417878-119.18988200000001H167.39224A157.613009 157.613009 0 0 0 8.810118 37.982620999999995V730.017379A157.613009 157.613009 0 0 0 167.39224 887.189882h141.666695a171.797298 171.797298 0 0 0 141.666695-73.564484l84.312828-127.0419H855.462445a166.246924 166.246924 0 0 0 168.625656-167.392239V41.41856700000005a158.582122 158.582122 0 0 0-158.670223-160.608449zM170.651983 816.708939A90.303708 90.303708 0 0 1 79.291061 726.669535v-692.12286A90.303708 90.303708 0 0 1 170.651983-55.49273000000005h698.11374A90.303708 90.303708 0 0 1 960.302848 34.54667500000005V512.671771a98.937624 98.937624 0 0 1-101.140153 100.347243H504.55545L399.979351 770.191517a105.721414 105.721414 0 0 1-84.312828 43.433881H170.651983z m279.897445-334.784479a31.716424 31.716424 0 0 0 33.742751-33.478448v-267.475178a33.742751 33.742751 0 0 0-67.485503 0V449.150822a31.716424 31.716424 0 0 0 33.830853 33.478448z m0-267.475178h269.765809a33.478448 33.478448 0 1 0 0-66.868795H450.637529a33.478448 33.478448 0 1 0 0 66.868795z"  horiz-adv-x="1032" />

    
    <glyph glyph-name="icon-cloud-platform" unicode="&#59116;" d="M522.17598969-94.79445563000002a479.90089689 479.90089689 0 0 0-347.16235125 140.03187188 475.3532925 475.3532925 0 0 0 0 679.73804812A460.25181655 460.25181655 0 0 0 457.47989094 861.06036a654.1685025 654.1685025 0 0 0 123.90075 0A581.14943156 581.14943156 0 0 0 704.68076469 833.0883075 36.63824156 36.63824156 0 0 0 727.07556781 785.72458594a37.839495 37.839495 0 0 0-48.39336843-21.87998063A529.49551781 529.49551781 0 0 1 576.23241031 787.52646656a585.69703594 585.69703594 0 0 1-111.54499594 0 404.47931813 404.47931813 0 0 1-236.56119655-690.12031312 400.87555687 400.87555687 0 0 1 293.79235968-118.40930438A413.66032969 413.66032969 0 0 1 816.31156436 97.92097689000002a395.29830656 395.29830656 0 0 1 120.12538126 287.09965968 432.36556688 432.36556688 0 0 1-23.68186126 137.28615 309.9234825 309.9234825 0 0 0-8.15136467 18.70523718 97.81638188 97.81638188 0 0 1-7.12171875 15.35888813 40.75682531 40.75682531 0 0 0-2.40250782 4.03278093 81.25623937 81.25623937 0 0 1-68.643075 31.23259875h-0.60062718a66.24056719 66.24056719 0 0 1-63.32323594-28.40107218l-0.94384219-1.37286093-172.03670625-355.22791219c-17.16076875-36.89565281-40.49941406-56.20151719-68.643075-57.05955563a87.60572437 87.60572437 0 0 0-74.13452062 55.34347875l-170.66384438 360.37614281a36.63824156 36.63824156 0 0 0 18.36202219 48.99399469 38.0111025 38.0111025 0 0 0 50.10944438-17.93300343l169.63419843-358.05943876c1.37286186-2.40250781 2.57411531-4.54760343 3.77536969-6.349485q1.71607687 3.08893876 3.17474156 6.26368125l173.66697938 358.40265375a38.61172969 38.61172969 0 0 0 4.29019217 6.77850375 149.64190313 149.64190313 0 0 0 128.0193347 62.29359 148.354845 148.354845 0 0 0 147.49680656-97.38736219c1.97348813-4.97662313 4.03278094-10.12485375 6.6927-15.27308437a35.17957594 35.17957594 0 0 0 2.05929188-4.89081843 505.72785375 505.72785375 0 0 0 28.31526844-163.02730314 471.92113875 471.92113875 0 0 0-142.43437969-339.26839686 493.71531564 493.71531564 0 0 0-347.07654656-140.63249907z"  horiz-adv-x="1045" />

    
    <glyph glyph-name="icon-fields" unicode="&#59354;" d="M64.405869 831.87861l0-894.517997 893.460921 0L957.86679 831.87861 64.405869 831.87861zM908.2303-12.942521000000056L114.043383-12.942521000000056 114.043383 782.180721l794.186917 0L908.2303-12.942521000000056zM560.77282 633.098311l248.183476 0 0-49.696866-248.183476 0 0 49.696866ZM560.77282 484.009761l248.183476 0 0-49.696866-248.183476 0 0 49.696866ZM213.316364 185.83777799999996l595.639932 0 0-49.696866-595.639932 0 0 49.696866ZM262.952854 583.4014460000001L312.589344 583.4014460000001 312.589344 285.22639300000003 362.226858 285.22639300000003 362.226858 583.4014460000001 411.863349 583.4014460000001 411.863349 533.706627 461.499839 533.706627 461.499839 583.4014460000001 461.499839 633.098311 213.316364 633.098311 213.316364 583.4014460000001 213.316364 533.706627 262.952854 533.706627ZM560.77282 334.926328l248.183476 0 0-49.699935-248.183476 0 0 49.699935Z"  horiz-adv-x="1024" />

    
    <glyph glyph-name="icon-datetime" unicode="&#59280;" d="M507.398192-59.662589000000025c-247.033279 0-447.241091 200.233394-447.241091 447.233927 0 247.019976 200.207811 447.233927 447.241091 447.233927 246.974951 0 447.233927-200.213951 447.233927-447.233927C954.632119 140.56978200000003 754.374166-59.662589000000025 507.398192-59.662589000000025zM507.398192 764.915499c-208.417797 0-383.241474-169.003112-383.241474-377.440351 0-208.378911 174.919868-383.343805 383.337665-383.343805 208.430076 0 383.349945 174.96387 383.349945 383.343805C890.844328 595.9123870000001 715.822129 764.915499 507.398192 764.915499zM443.609377 323.585025L443.609377 579.140399l63.883983 0 0-191.671391 191.671391 0 0-63.883983L443.609377 323.585025z"  horiz-adv-x="1024" />

    
    <glyph glyph-name="icon-des" unicode="&#59110;" d="M473.16385185 162.06435911000005c21.43755378 0 38.83614815-20.86795734 38.83614815-46.60337777s-17.39859437-46.60337778-38.83614815-46.60337778h-233.01688888c-21.43755378 0-38.83614815 20.86795734-38.83614815 46.60337778s17.39859437 46.60337778 38.83614815 46.60337777h233.01688888z m310.68918518 266.31241244c21.43755378 0 38.83614815-20.86795734 38.83614815-46.60337778s-17.39859437-46.60337778-38.83614815-46.60337778H240.14696297c-21.43755378 0-38.83614815 20.86795734-38.83614815 46.60337778s17.39859437 46.60337778 38.83614815 46.60337778h543.70607406z m0 266.31241363c21.43755378 0 38.83614815-20.86795734 38.83614815-46.60337777s-17.39859437-46.60337778-38.83614815-46.60337778H240.14696297c-21.43755378 0-38.83614815 20.86795734-38.83614815 46.60337778s17.39859437 46.60337778 38.83614815 46.60337777h543.70607406z"  horiz-adv-x="1024" />

    
    <glyph glyph-name="icon-percent" unicode="&#59112;" d="M517.556 754.7l-60.543-1.536c-207.998-15.244-372.637-188.473-372.637-400.385 0-221.946 179.633-401.861 401.612-401.861 211.938 0 384.953 165.01 400.292 373.008l1.325 60.421h-370.046v370.352zM826.506 322.755c-15.059-184.78-161.772-312.461-340.789-312.461-189.06 0-342.365 153.366-342.365 342.422 0 179.019 127.835 325.824 312.617 340.918v-370.879h370.539zM826.506 322.755zM548.354 814.2v-399.059h398.78c0 215.579-183.206 399.059-398.78 399.059v0zM609.947 750.1759999999999c30.794-4.404 47.579-11.734 71.6-21.899 40.835-17.247 76.065-41.972 107.572-73.475 31.504-31.507 55.524-65.473 72.8-106.308 10.164-24.023 16.75-40.962 21.189-71.756h-273.159v273.437zM609.947 750.1759999999999z"  horiz-adv-x="1024" />

    
    <glyph glyph-name="icon-signature" unicode="&#59113;" d="M325.0390625 363.82781250000005l-112.0228125-226.5534375c-9.395625-25.5009375 11.0334375-48.354375 36.5390625-36.5259375l226.6209375 111.988125c9.774375 1.9003125 19.24875 5.683125 26.8190625 13.2496875l402.5915625 402.470625c20.2115625 20.203125 20.2115625 52.9734375 0 73.1746875l-91.4971875 91.4709375c-20.2115625 20.2078125-52.9865625 20.2078125-73.1990625 0l-402.5971875-402.466875c-7.5665625-7.57125-11.355-17.0371875-13.2553125-26.8115625v0zM759.1878125 738.22125c10.1015625 10.1053125 26.4909375 10.1053125 36.59625 0l54.9-54.88875c10.10625-10.100625 10.10625-26.475 0-36.585l-54.9-54.875625-90.1884375 92.7796875 53.59125 53.56875zM667.0353125 646.09875l92.14875-90.8184375-292.794375-292.7053125c-23.3746875 23.360625-18.706875 18.7021875-16.54875 16.54125l-56.6503125 56.6353125c-10.11 10.10625-8.578125 8.5753125-18.301875 18.294375l292.145625 292.0509375zM420.798125 234.98531249999996l-139.9453125-84.6853125c-12.7509375-5.915625-24.19125 6.3346875-18.26625 18.26625l84.7059375 139.89 73.50375-73.4728125zM869.2146875 495.72375v-416.38875c0-28.5834375-28.28625-52.3584375-56.865-52.3584375h-621.114375c-28.5815625 0-51.76125 23.1703125-51.76125 51.7415625v620.92125c0 28.57875 23.859375 56.3353125 52.441875 56.3353125h416.795625v52.0528125h-416.7909375c-57.1734375 0-104.199375-51.2315625-104.199375-108.388125v-620.919375c0-57.1453125 46.348125-103.48125 103.515-103.48125h621.106875c57.1734375 0 108.9703125 46.948125 108.9703125 104.0971875v416.3878125h-52.0978125zM869.2146875 495.72375z"  horiz-adv-x="1024" />

    
    <glyph glyph-name="icon-website" unicode="&#59377;" d="M738.397287 828.506816c-56.880475 0-114.188692-21.47715-157.898193-64.020082l-146.097426-144.341433c-13.179161-13.282514-13.179161-34.827203 0-48.080042 13.704117-13.08911 35.753295-13.08911 49.027623 0l146.099473 144.044674 0.462534 0c29.508058 29.455869 69.13559 44.00319 108.405989 44.00319 85.23936 0 153.491837-67.230194 153.491837-151.340847 0-38.649252-14.749936-77.564563-44.62536-107.111506L688.320775 344.84728199999995c-29.842679-28.54308-68.548212-43.091424-107.821681-43.091424-53.92312 0-104.430444 28.547173-131.934868 73.998341-6.375198 10.854209-11.69946 22.487154-15.214517 34.345226-5.291516 18.146289-24.384363 28.252461-43.117007 22.968108-18.036795-5.310959-28.389584-24.425296-23.034623-42.343387 5.425569-16.881482 12.787234-33.794687 22.576181-49.505507l0-0.291642c39.73191-65.484434 111.826901-106.787118 190.724833-106.787118 56.391335 0 112.815415 20.796652 155.992797 62.368466l159.247934 157.070338c43.145659 42.544979 64.700581 99.110275 64.700581 155.195641C960.440405 730.33696 861.46009 828.506816 738.397287 828.506816zM540.773324 199.793628l0 0.002047L394.673851 55.518710000000056c-59.279105-58.544371-158.39245-58.772568-217.638809-0.228197l0 0.228197c-59.377342 58.483996-59.377342 155.907862 0 214.32432l157.307745 155.712411c30.001291 28.966729 69.168336 43.768853 108.899222 43.768853 39.729863 0 78.901001-14.804171 108.869546-43.768853l0-0.452301c9.29776-8.943696 16.663518-18.919908 23.036669-29.54899 6.800893-10.624988 11.69946-22.224164 15.214517-33.794687 5.351891-18.371416 24.512277-28.54308 42.556235-23.228027 18.173918 5.310959 28.982078 24.169469 23.624047 42.312688-5.454222 17.396205-12.846586 34.082236-21.554922 49.536206-9.891278 15.486716-21.096481 30.001291-33.847899 43.062771-43.703361 42.573631-100.553137 64.018036-157.898193 64.018036-57.308217 0-114.190739-21.444405-157.8941-64.018036L127.975696 317.98651700000005c-85.804225-84.819804-85.804225-225.76079 0-311.034942l2.39863-1.74883c86.259596-82.876546 226.610134-82.166371 312.407196 1.227967l0 0.51984 0.460488 0.452301 146.560984 144.048767c13.272281 13.510712 13.272281 34.799574-0.458441 48.340985C576.066131 212.88478399999997 554.047652 212.88478399999997 540.773324 199.793628z"  horiz-adv-x="1024" />

    
    <glyph glyph-name="icon-address" unicode="&#59330;" d="M503.604565-126.75208499999997c-17.035264 0-34.067797 6.813013-47.70065 20.44177-10.21952 10.21952-98.800981 102.210219-183.975936 218.045099-115.840341 156.727979-177.165653 282.78784-177.165654 374.774443C94.762325 711.371435 278.742357 895.351467 503.6032 895.351467S912.44544 711.371435 912.44544 486.509227c0-54.512299-20.441771-122.653355-61.326677-197.607424-40.880811-74.951339-98.800981-160.126293-180.56943-258.931371l-115.840341-132.872875c-13.626027-17.036629-30.665387-23.849643-51.104427-23.849642z m0 960.776874c-190.793045 0-347.515563-156.722517-347.515562-347.515562 0-74.952704 57.920171-194.199552 163.53553-337.294678 85.179051-115.838976 177.167019-211.233451 180.573526-214.639957h6.813013l115.840341 132.872875c74.952704 91.987968 132.872875 177.161557 170.348544 248.70912 37.4784 68.139691 54.513664 126.059861 54.513664 170.35264 3.405141 190.793045-153.316011 347.515563-344.109056 347.515562z m0-538.309973c-105.61536 0-190.793045 85.17632-190.793045 190.794411 0 105.61536 85.177685 190.793045 190.793045 190.793045 105.618091 0 190.793045-85.177685 190.793046-190.793045 0-105.618091-85.174955-190.794411-190.793046-190.794411z m0 320.262144c-71.547563 0-129.467733-57.920171-129.467733-129.467733 0-71.546197 57.920171-129.466368 129.467733-129.466368 71.546197 0 129.466368 57.920171 129.466368 129.466368 0 71.547563-57.920171 129.467733-129.466368 129.467733z m0 0"  horiz-adv-x="1024" />

    
    <glyph glyph-name="icon-nav" unicode="&#59429;" d="M511.78261396 769.93375049l327.73890586-771.93156709-319.39694648 223.09736572-336.14760146-223.09736572L511.78261396 769.93375049m0 64.06624951a63.99951328 63.99951328 0 0 1-58.92760195-38.97363516L125.11610527 23.094796869999982a64.06624951 64.06624951 0 0 1 94.43098213-78.41441953l299.7766582 198.87231534 283.55988868-198.07148672a64.06624951 64.06624951 0 0 1 95.63222373 77.61359091L570.8436875 794.8928932599999A64.26645645 64.26645645 0 0 1 511.78261396 834z"  horiz-adv-x="1024" />

    
    <glyph glyph-name="icon-range" unicode="&#59117;" d="M880.2242189 776.77250026a98.19312539 98.19312539 0 0 0 98.1931254-98.1931241v-589.15875232a98.19312539 98.19312539 0 0 0-98.1931254-98.1931241H143.7757811a98.19312539 98.19312539 0 0 0-98.1931254 98.1931241V678.57937616a98.19312539 98.19312539 0 0 0 98.1931254 98.1931241h736.4484378z m0-49.0965627H143.7757811a49.0965627 49.0965627 0 0 1-49.0965627-49.0965614v-589.15875232a49.0965627 49.0965627 0 0 1 49.0965627-49.0965614h736.4484378a49.0965627 49.0965627 0 0 1 49.0965627 49.0965614V678.57937616a49.0965627 49.0965627 0 0 1-49.0965627 49.0965614z m-557.41782344-222.1619447a24.54828134 24.54828134 0 0 0 34.71127023-34.71127024L295.26322442 408.54828134h433.44900284l-62.22989295 62.25444128a24.54828134 24.54828134 0 0 0 34.71127023 34.71127024l104.15835645-104.15835773a24.54828134 24.54828134 0 0 0 0-34.71127026l-104.15835645-104.15835773a24.54828134 24.54828134 0 0 0-34.71127023 34.71127024L728.71222726 359.45171866H295.26322442l62.25444127-62.25444128a24.54828134 24.54828134 0 0 0 2.03750745-32.40373117l-2.03750745-2.30753907a24.54828134 24.54828134 0 0 0-34.71127023 0l-104.15835645 104.15835773a24.54828134 24.54828134 0 0 0 0 34.71127026z"  horiz-adv-x="1024" />

    
    <glyph glyph-name="icon-bool" unicode="&#59118;" d="M878.712471 715.294118C925.696 715.294118 963.764706 678.5505880000001 963.764706 633.133176v-438.031058C963.764706 149.684706 925.696 112.94117600000004 878.712471 112.94117600000004H85.052235C38.068706 112.94117600000004 0 149.684706 0 195.10211800000002V633.133176C0 678.5505880000001 38.068706 715.294118 85.052235 715.294118z m0-54.814118H85.052235c-15.661176 0-28.310588-12.227765-28.310588-27.346824v-438.031058c0-15.119059 12.649412-27.407059 28.310588-27.407059h793.660236c15.661176 0 28.310588 12.288 28.310588 27.407059V633.133176a27.888941 27.888941 0 0 1-28.310588 27.407059z m-318.644706-29.274353c13.071059-5.300706 20.48-20.058353 18.130823-34.695529l-1.325176-5.421177-125.048471-375.506823c-5.421176-16.263529-21.684706-24.515765-36.382117-18.552471-13.071059 5.300706-20.48 20.058353-18.191059 34.695529l1.325176 5.421177 125.108706 375.506823c5.421176 16.263529 21.684706 24.515765 36.382118 18.552471z m262.023529-52.826353c15.600941 0 28.310588-12.227765 28.310588-27.346823a27.708235 27.708235 0 0 0-23.250823-26.925177l-5.12-0.481882h-141.733647v-82.100706h141.733647c15.661176 0 28.310588-12.288 28.310588-27.407059a27.708235 27.708235 0 0 0-23.190588-26.925176l-5.12-0.481883h-141.733647v-136.854588c0-15.119059-12.649412-27.407059-28.310588-27.407059a28.129882 28.129882 0 0 0-27.888942 22.467765l-0.481882 4.939294v301.176471c0 15.058824 12.649412 27.346824 28.310588 27.346823h170.104471z m-453.571765 0c15.661176 0 28.310588-12.227765 28.310589-27.346823a27.708235 27.708235 0 0 0-23.250824-26.925177l-5.059765-0.481882H283.467294v-273.769412c0-15.119059-12.649412-27.407059-28.310588-27.407059a28.129882 28.129882 0 0 0-27.949177 22.467765l-0.421647 4.939294V523.625412H141.733647a27.888941 27.888941 0 0 0-28.310588 27.407059 27.708235 27.708235 0 0 0 23.190588 26.925176l5.12 0.421647h226.785882z"  horiz-adv-x="1024" />

    
    <glyph glyph-name="icon-link" unicode="&#59506;" d="M555.008 227.84000000000003l-257.024-257.024-199.168 199.168 257.024 257.024-28.672 28.672c-7.68 7.68-17.92 11.776-28.672 11.776s-20.992-4.096-28.672-11.776l-257.024-256.512c-15.872-15.872-15.872-41.984 0-57.856l257.024-257.024c7.68-7.68 17.92-11.776 28.672-11.776s20.992 4.096 28.672 11.776l257.024 257.024c7.68 7.68 11.776 17.92 11.776 28.672s-4.096 20.992-11.776 28.672l-29.184 29.184zM354.816 226.81600000000003c7.68-7.68 17.92-11.776 28.672-11.776s20.992 4.096 28.672 11.776l257.024 257.024c7.68 7.68 11.776 17.92 11.776 28.672s-4.096 20.992-11.776 28.672-17.92 11.776-28.672 11.776-20.992-4.096-28.672-11.776l-257.024-257.024c-7.68-7.68-11.776-17.92-11.776-28.672-0.512-10.752 4.096-20.992 11.776-28.672zM1012.224 627.2l-256.512 256.512c-7.68 7.68-17.92 11.776-28.672 11.776s-20.992-4.096-28.672-11.776L440.32 626.688c-7.68-7.68-11.776-17.92-11.776-28.672s4.096-20.992 11.776-28.672l28.672-28.672 257.024 257.024 199.168-199.168-257.024-257.024 28.672-28.672c7.68-7.68 17.92-11.776 28.672-11.776s20.992 4.096 28.672 11.776l257.536 257.536c7.68 7.68 11.776 17.408 11.776 28.16 0.512 10.752-3.584 20.992-11.264 28.672z"  horiz-adv-x="1024" />

    
    <glyph glyph-name="icon-top" unicode="&#59111;" d="M477.183116 881.081861L44.478155 423.497549c-19.890852-19.890852-19.890852-49.742916 0-69.633768s49.742916-19.890852 69.633768 0l348.153054 368.059692V-78.17815199999995c0-29.852064 19.890852-49.742916 49.742916-49.742916s49.742916 19.890852 49.742916 49.742916V721.9234730000001l348.153054-368.059692c19.890852-19.890852 49.742916-19.890852 69.633768 0 9.945426 9.945426 14.918139 24.863565 14.918139 34.824777s-4.972713 24.863565-14.918139 34.824777L546.83267 881.081861C536.887244 891.027287 521.969106 896 512.007893 896s-24.863565-4.972713-34.824777-14.918139z m0 0"  horiz-adv-x="1024" />

    
    <glyph glyph-name="icon-slip" unicode="&#59107;" d="M801.2 838.2H227.6c-100.2 0-108-70.2-108-91.8v-769.2l11.4-7.8c30-19.8 84.6-54 112.2-54 26.4 0 76.2 34.2 114 63.6 11.4 6 31.2 6 43.2 0 24-20.4 78.6-64.2 114-64.2s90 43.2 114 64.2c11.4 6 31.2 6 42.6 0 24-20.4 79.2-64.2 114-64.2 35.4 0 96.6 41.4 114 54l10.8 7.8V745.2c0.6 45-33.6 93-108.6 93zM408.2 518.4c-6.6 0.6-12 3-15.6 7.2s-6 9.6-6.6 16.2c0.6 6.6 3 11.4 6.6 15.6 3.6 4.2 9 6.6 15.6 6.6h54.6l-50.4 88.8c-2.4 3-4.8 6.6-7.2 11.4-2.4 4.8-3 9.6-3 15 1.2 7.2 3.6 12.6 7.8 17.4 3.6 4.2 10.8 7.2 21 8.4 6-0.6 11.4-2.4 16.2-6 4.8-3.6 8.4-7.8 11.4-12L516.2 582l63 105.6c3 4.2 7.2 7.8 11.4 11.4 4.8 3 10.2 5.4 16.2 6 3.6 0 7.2-0.6 10.2-1.2s6-1.8 8.4-3.6c2.4-1.8 4.2-4.2 6-7.8 1.8-3 3-7.8 3.6-12.6 0-7.2-2.4-14.4-7.8-21L569 564h55.2c6.6-0.6 11.4-3 15.6-6.6 3.6-4.2 6-9 6.6-15.6-0.6-6.6-3-12-6.6-16.8-3.6-4.2-9-7.2-15.6-7.8l-72-0.6v-22.8h72.6c6.6-0.6 11.4-3 15.6-7.8 3.6-4.8 6-10.2 6.6-16.2-0.6-6.6-2.4-12-6.6-16.2-3.6-4.2-9-6.6-15.6-7.2l-72.6 0.6v-40.2c-1.2-21.6-12.6-31.8-34.8-31.8-10.8 0-19.8 2.4-25.8 7.8s-9.6 13.2-10.2 24v39H408.2c-6.6 0.6-12 3.6-15.6 8.4-3.6 5.4-6 10.8-6.6 17.4 0.6 6.6 3 11.4 6.6 15.6 3.6 4.2 9 6 15.6 6.6h72.6v24l-72.6 0.6z m268.2-413.4h-330c-16.8 0-30.6 12.6-30.6 28.2s13.8 28.2 30.6 28.2h329.4c16.8 0 30.6-12.6 30.6-28.2 0.6-15.6-13.2-28.2-30-28.2z m0 142.8h-330c-16.8 0-30.6 12.6-30.6 28.2s13.8 28.2 30.6 28.2h329.4c16.8 0 30.6-12.6 30.6-28.2 0.6-15.6-13.2-28.2-30-28.2z"  horiz-adv-x="1024" />

    
    <glyph glyph-name="icon-save" unicode="&#59106;" d="M827 834H197A135 135 0 0 1 62 699v-630A135.3375 135.3375 0 0 1 197-66h630A135.3375 135.3375 0 0 1 962 69V699A135 135 0 0 1 827 834z m-84.65625-62.6625V454.3125H281.7125V771.3375H742.34375zM899.3375 69a72.16875 72.16875 0 0 0-72.3375-72H197a72.16875 72.16875 0 0 0-72.3375 72V699c0 39.9375 32.4 72.28125 72.3375 72.3375h21.9375V422.8125a31.1625 31.1625 0 0 1 31.33125-31.1625h523.35a31.1625 31.1625 0 0 1 31.3875 31.1625V771.3375H827c39.9375 0 72.28125-32.4 72.3375-72.3375v-630zM632.9375 521.5875a31.5 31.5 0 0 1 31.33125 31.5V682.29375a31.3875 31.3875 0 0 1-62.71875 0v-129.20625a31.5 31.5 0 0 1 31.275-31.5h0.1125zM287 255.41250000000002h450a32.11875 32.11875 0 0 0 0-64.29375H287a32.11875 32.11875 0 0 0 0 64.29375z"  horiz-adv-x="1024" />

    
    <glyph glyph-name="icon-draft" unicode="&#59105;" d="M822.68918518-4.361481479999952H201.31081482V772.36148148h621.37837036v-776.72296296m0 854.39525926H201.31081482c-42.84112592 0-77.6722963-34.83117037-77.6722963-77.6722963v-776.72296296c0-42.84112592 34.83117037-77.6722963 77.6722963-77.6722963h621.37837036c42.84112592 0 77.6722963 34.83117037 77.6722963 77.6722963V772.36148148c0 42.84112592-34.83117037 77.6722963-77.6722963 77.6722963zM589.79365925 578.18074075c0-21.48124445-17.3549037-38.83614815-38.83614814-38.83614816h-233.01688889c-21.48124445 0-38.83614815 17.3549037-38.83614814 38.83614816s17.3549037 38.83614815 38.83614814 38.83614814h233.01688889c21.48124445 0 38.83614815-17.3549037 38.83614814-38.83614814zM745.01688889 422.83614815c0-21.48124445-17.3549037-38.83614815-38.83614814-38.83614815H317.81925925c-21.48124445 0-38.83614815 17.3549037-38.83614814 38.83614815s17.3549037 38.83614815 38.83614814 38.83614815h388.3614815c21.48124445 0 38.83614815-17.3549037 38.83614814-38.83614815zM745.01688889 267.49155555000004c0-21.48124445-17.3549037-38.83614815-38.83614814-38.83614814H317.81925925c-21.48124445 0-38.83614815 17.3549037-38.83614814 38.83614814s17.3549037 38.83614815 38.83614814 38.83614815h388.3614815c21.48124445 0 38.83614815-17.3549037 38.83614814-38.83614815z"  horiz-adv-x="1024" />

    
    <glyph glyph-name="icon-structure" unicode="&#59101;" d="M597.333333 256h341.333334a42.666667 42.666667 0 0 1 42.666666 42.666667v170.666666a42.666667 42.666667 0 0 1-42.666666 42.666667h-341.333334a42.666667 42.666667 0 0 1-42.666666-42.666667v-42.666666H256V554.666667h298.666667a42.666667 42.666667 0 0 1 42.666666 42.666666V810.666667a42.666667 42.666667 0 0 1-42.666666 42.666666H85.333333a42.666667 42.666667 0 0 1-42.666666-42.666666v-213.333334a42.666667 42.666667 0 0 1 42.666666-42.666666h85.333334v-512a42.666667 42.666667 0 0 1 42.666666-42.666667h341.333334v-42.666667a42.666667 42.666667 0 0 1 42.666666-42.666666h341.333334a42.666667 42.666667 0 0 1 42.666666 42.666666v170.666667a42.666667 42.666667 0 0 1-42.666666 42.666667h-341.333334a42.666667 42.666667 0 0 1-42.666666-42.666667v-42.666667H256v256h298.666667v-42.666666a42.666667 42.666667 0 0 1 42.666666-42.666667z m42.666667 170.666667h256v-85.333334h-256zM128 640V768h384v-128z m512-554.666667h256v-85.333333h-256z"  horiz-adv-x="1024" />

    
    <glyph glyph-name="icon-search-note" unicode="&#59099;" d="M637.7 194.29999999999995m-96 0a96 96 0 1 1 192 0 96 96 0 1 1-192 0ZM800 800H672v-192h192V736c0 35.2-28.8 64-64 64zM640 544c-17.6 0-32 14.4-32 32V800H224c-35.2 0-64-28.8-64-64v-704c0-35.2 28.8-64 64-64h576c5.7 0 11.3 0.8 16.5 2.2L726 60.799999999999955c-25.3-16.8-55.6-26.5-88.2-26.5-88.4 0-160 71.6-160 160s71.6 160 160 160 160-71.6 160-160c0-32.6-9.8-62.9-26.5-88.2l90.6-90.6c1.4 5.3 2.2 10.8 2.2 16.5V544H640zM415.8 297.4c-5.8-5.8-13.8-9.4-22.6-9.4h-96c-17.6 0-32 14.4-32 32 0 8.8 3.6 16.8 9.4 22.6 5.8 5.8 13.8 9.4 22.6 9.4h96c17.6 0 32-14.4 32-32 0-8.8-3.6-16.8-9.4-22.6z m288 128c-5.8-5.8-13.8-9.4-22.6-9.4h-384c-17.6 0-32 14.4-32 32 0 8.8 3.6 16.8 9.4 22.6 5.8 5.8 13.8 9.4 22.6 9.4h384c17.6 0 32-14.4 32-32 0-8.8-3.6-16.8-9.4-22.6z"  horiz-adv-x="1024" />

    
    <glyph glyph-name="icon-double-note" unicode="&#59094;" d="M960-128H320a64 64 0 0 0-64 64v128h512a64 64 0 0 1 64 64V448h128a64 64 0 0 0 64-64v-448a64 64 0 0 0-64-64z m-256 256H64a64 64 0 0 0-64 64V832a64 64 0 0 0 64 64h640a64 64 0 0 0 64-64v-640a64 64 0 0 0-64-64zM384 704H128v-64h256V704z m128-192H128v-64h384V512z"  horiz-adv-x="1024" />

    
    <glyph glyph-name="icon-note" unicode="&#59095;" d="M896-128H128a64 64 0 0 0-64 64V832a64 64 0 0 0 64 64h768a64 64 0 0 0 64-64v-896a64 64 0 0 0-64-64zM256 192h384v64H256v-64z m512 448H256v-64h512V640z m0-192H256v-64h512V448z"  horiz-adv-x="1024" />

    
    <glyph glyph-name="icon-category-note" unicode="&#59096;" d="M896-128H128a64 64 0 0 0-64 64V832a64 64 0 0 0 64 64h768a64 64 0 0 0 64-64v-896a64 64 0 0 0-64-64zM320 704H256v-64h64V704z m0-256H256v-64h64V448z m0-256H256v-64h64v64z m448 512H448v-64h320V704z m0-256H448v-64h320V448z m0-256H448v-64h320v64z"  horiz-adv-x="1024" />

    
    <glyph glyph-name="icon-gift" unicode="&#59093;" d="M85.930667-54.01599999999996c0-24.576 7.125333-31.317333 29.44-31.317333l353.365333 0L468.736 384.256 85.930667 384.256 85.930667-54.01599999999996zM555.264-85.33333300000004l353.365333 0c22.357333 0 29.44 6.698667 29.44 31.317333L938.069333 384.256l-382.848 0L555.221333-85.33333300000004zM938.666667 640l-213.333333 0c51.498667 11.733333 105.898667 49.706667 112.597333 94.293333 7.850667 50.858667-52.565333 127.957333-125.653333 118.186667-87.424-12.117333-151.509333-89.258667-196.736-149.077333C470.656 762.069333 412.16 830.592 328.362667 850.517333c-81.152 19.2-136.746667-64.938667-135.253333-116.992C194.56 689.28 245.717333 651.690667 298.666667 640L85.333333 640C58.965333 640 42.666667 625.152 42.666667 597.333333l0-170.581333L469.333333 426.666667 469.333333 640l85.333333 0 0-213.333333 426.666667 0.085333L981.333333 597.333333C981.333333 625.152 964.992 640 938.666667 640zM251.648 717.8240000000001C236.885333 734.250667 246.869333 756.565333 256.128 773.418667c17.024 29.696 40.746667 47.744 81.152 30.933333 56.32-23.509333 97.792-73.216 131.584-117.802667C397.312 678.656 290.56 675.5840000000001 251.648 717.8240000000001zM562.944 687.317333c34.816 44.629333 75.221333 89.941333 131.157333 117.802667 58.581333 28.970667 113.024-49.322667 85.205333-86.912-21.418667-28.544-89.258667-31.232-125.909333-32.853333C623.317333 683.818667 592.896 684.544 562.944 687.317333z"  horiz-adv-x="1024" />

    
    <glyph glyph-name="icon-user-fill" unicode="&#59218;" d="M315.306667 190.336a341.333333 341.333333 0 1 0 393.429333 0l88.874667-203.093333a21.333333 21.333333 0 0 0-19.584-29.909334H245.973333a21.333333 21.333333 0 0 0-19.584 29.866667l88.874667 203.136z m31.104 237.610667a170.752 170.752 0 0 1 331.178666 0l-82.773333 20.693333a85.333333 85.333333 0 0 0-165.632 0l-82.773333-20.693333z"  horiz-adv-x="1024" />

    
    <glyph glyph-name="icon-shop-cart" unicode="&#59089;" d="M342.199 77.60199999999998c13.2 0 25.6-2.4 37.2-7.2 11.8-4.8 22-11.6 31-20.2 9-8.6 15.8-18.8 20.6-30.6 4.8-11.8 7.2-24.2 7.2-37.2s-2.4-25.4-7.2-37.2c-4.8-11.8-11.8-22-20.6-30.6-9-8.6-19.2-15.4-31-20.6-11.8-5.2-24.2-7.8-37.2-7.8-13.8 0-26.4 2.6-37.8 7.8s-21.6 12-30.6 20.6-15.8 18.8-20.6 30.6c-4.8 11.8-7.2 24.2-7.2 37.2s2.4 25.6 7.2 37.2c4.8 11.8 11.8 21.8 20.6 30.6 9 8.6 19.2 15.4 30.6 20.2S328.399 77.60199999999998 342.199 77.60199999999998L342.199 77.60199999999998zM772.198 75.60199999999998c13.2 0 25.6-2.4 37.8-7.2 12-4.8 22.4-11.6 31-20.2s15.6-18.8 20.6-30.6c5.2-11.8 7.8-24.2 7.8-37.2 0-13-2.6-25.4-7.8-37.2-5.2-11.8-12-22-20.6-30.4-8.6-8.6-19-15.4-31-20.6-12-5.2-24.6-7.8-37.8-7.8s-25.6 2.6-37.2 7.8c-11.8 5.2-21.8 12-30.6 20.6-8.6 8.6-15.6 18.8-20.6 30.4-5.2 11.6-7.8 24-7.8 37.2s2.6 25.6 7.8 37.2c5.2 11.6 12 21.8 20.6 30.6 8.6 8.6 18.8 15.4 30.6 20.2C746.798 73.202 759.198 75.60199999999998 772.198 75.60199999999998L772.198 75.60199999999998zM945.998 662.8009999999999c19.2 0 34.2-2.6 45-7.8 10.6-5.2 18.2-11.6 22.8-19.2s6.6-15.6 6.2-24.2c-0.4-8.6-1.6-16-3.6-22.2-2-6.2-6.4-19-13-38.2s-14-40.4-22.2-63.6c-8.2-23.2-16.4-46-24.2-68.8-8-22.8-14-40.6-18-53.8-9-27.6-20.4-46.6-34.2-57.4-13.8-10.6-30.6-16-50.6-16L311.199 291.601l15.6-93 520.999 0c33 0 49.6-14.2 49.6-42.4 0-13.8-3.2-25.6-9.8-35.6-6.6-10-19.4-15-38.8-15L306.999 105.601c-13.8 0-25.4 3-34.6 9.2-9.4 6.2-17 14.2-23.2 24.2-6.2 10-11.2 20.8-15 32.6-3.8 11.8-6.8 22.8-8.8 33-0.6 4.2-2.6 14.2-5.6 30-3.2 15.8-7 35.6-11.4 59.4-4.4 23.8-9.4 50.4-15 79.6-5.6 29.2-11 58.8-16.6 88.4-13.2 69.6-28 147.2-44.4 232.599L54.8 694.6c-10.4 0-19 2.6-25.8 7.8-7 5.4-12.6 11.6-17.2 18.8s-7.6 15-9.2 23.2C0.8 752.8 0 760.2 0 767.2c0 13.8 4.6 25.2 14 34.2s21.8 13.4 37.8 13.4l104.4 0c13.8 0 24.8-2 33-6.2s14.8-9.4 19.6-15.6c4.8-6.2 8.2-12.8 10.4-19.6 2-7 3.8-12.8 5.2-17.6 1.4-5.6 2.8-13.2 4.2-23.2 1.4-10 2.8-20.2 4.2-30.4 2-12.4 4.2-25.6 6.2-39.4L945.998 662.8 945.998 662.8009999999999z"  horiz-adv-x="1024" />

    
    <glyph glyph-name="icon-sell" unicode="&#59091;" d="M514.00390625 549.6a137.22011719 137.22011719 0 0 0 136.97929688 137.16035156 137.22011719 137.22011719 0 0 0 137.0399414-137.16035156 137.22011719 137.22011719 0 0 0-137.0390625-137.10058594 137.22011719 137.22011719 0 0 0-136.98105469 137.10058594m442.50029297 201.23964844c0 43.08046875-34.98046875 78.12070313-76.61953125 78.12070312h-0.06064453C878.50390625 829.02011719 743.20332031 834 641.0234375 834 523.42314453 834 512.80332031 828.30029297 500.08378906 815.57988281L318.22314453 633.60058594 84.8234375 400.01982422a78.60058594 78.60058594 0 0 1 0.23994141-110.99970703l331.86005859-332.04023438c14.87988281-14.82011719 34.56035156-22.97988281 55.61982422-22.97988281 20.99970703 0 40.55976563 8.1 55.19970703 22.79970703L787.484375 216.60000000000002l155.57958984 155.75976563c13.73994141 13.68017578 26.63964844 26.63964844 13.44023438 378.47988281"  horiz-adv-x="1024" />

    
    <glyph glyph-name="icon-inventory" unicode="&#59092;" d="M317.613105 222.74438099999998h290.669714a71.92381 71.92381 0 0 1 70.753524 73.142857V455.777524a24.966095 24.966095 0 0 1-24.624762 25.404952H317.613105a24.966095 24.966095 0 0 1-24.624762-25.404952v-207.628191a25.014857 25.014857 0 0 1 24.624762-25.404952z m53.394285 300.860952h229.961143a24.966095 24.966095 0 0 1 24.624762 25.404953v97.523809a24.966095 24.966095 0 0 1-24.624762 25.161143H371.00739a24.966095 24.966095 0 0 1-24.624761-25.453714v-97.52381a24.966095 24.966095 0 0 1 24.624761-25.404952z m-321.828571-300.860952h181.686857a24.966095 24.966095 0 0 1 24.624762 25.404952V498.151619a25.112381 25.112381 0 0 0 24.722286 25.404952 25.014857 25.014857 0 0 1 24.380952 25.404953V605.1352380000001a24.966095 24.966095 0 0 1-24.624762 25.404952H49.130057A24.966095 24.966095 0 0 1 24.505295 605.1352380000001v-356.985905a24.966095 24.966095 0 0 1 24.624762-25.404952zM910.021486 798.47619h-25.258667a146.285714 146.285714 0 0 1-143.750095-148.187428l-0.292572-401.993143a87.28381 87.28381 0 0 0-85.967238-88.600381H49.666438a24.966095 24.966095 0 0 1-24.624762-25.404952v-105.959619a24.966095 24.966095 0 0 1 24.624762-25.404953h59.099429a106.300952 106.300952 0 0 0 104.594285 104.350476 106.25219 106.25219 0 0 0 104.594286-104.350476h253.561905a104.643048 104.643048 0 0 0 209.237333 0 91.37981 91.37981 0 0 1 89.916953 92.647619V606.744381a56.368762 56.368762 0 0 0 55.442285 57.197714 24.966095 24.966095 0 0 1 24.868572 25.453715V756.102095A41.593905 41.593905 0 0 1 910.021486 798.47619zM216.285867 70.16838099999995A74.752 74.752 0 0 1 211.555962-79.23809500000004a74.752 74.752 0 0 1 4.87619 149.357714z m461.970285 0a74.752 74.752 0 1 1 70.022096-72.265143 73.581714 73.581714 0 0 1-70.022096 72.265143z"  horiz-adv-x="1024" />

    
    <glyph glyph-name="icon-b-setting" unicode="&#59085;" d="M512 384m-506.31111111 0a506.31111111 506.31111111 0 1 1 1012.62222222 0 506.31111111 506.31111111 0 1 1-1012.62222222 0ZM641.13777778 404.82133333c1.82044445 11.49155555 2.84444445 23.21066667 2.84444444 35.27111112 0 6.48533333-0.34133333 12.85688889-0.91022222 19.22844444l-47.104 18.77333333c-3.64088889 16.61155555-9.67111111 32.31288889-17.63555555 46.87644445l22.9831111 45.16977778c-10.80888889 14.67733333-23.32444445 27.98933333-37.43288888 39.59466666l-46.64888889-20.36622222c-13.53955555 8.41955555-28.10311111 15.13244445-43.80444445 19.68355556L458.06933333 657.06666667c-10.92266667 1.70666667-22.18666667 2.61688889-33.67822222 2.61688888-7.28177778 0-14.56355555-0.34133333-21.61777778-1.024l-18.20444444-47.33155555c-15.24622222-3.52711111-29.80977778-8.98844445-43.23555556-16.15644445L296.50488889 618.38222222c-15.01866667-10.80888889-28.672-23.43822222-40.50488889-37.66044444l20.25244445-46.42133333c-8.53333333-13.42577778-15.36-27.98933333-20.13866667-43.5768889l-48.35555556-15.47377777c-1.82044445-11.49155555-2.84444445-23.21066667-2.84444444-35.27111111 0-6.48533333 0.34133333-12.85688889 0.91022222-19.22844445l47.104-18.77333333c3.64088889-16.61155555 9.67111111-32.31288889 17.63555555-46.87644444L247.46666667 310.04444445c10.80888889-14.67733333 23.32444445-27.98933333 37.43288888-39.59466667l46.6488889 20.36622222c13.53955555-8.41955555 28.10311111-15.13244445 43.80444444-19.68355555l15.47377778-48.24177778c10.92266667-1.70666667 22.18666667-2.61688889 33.67822222-2.61688889 7.28177778 0 14.56355555 0.34133333 21.61777778 1.024l18.20444444 47.33155555c15.24622222 3.52711111 29.80977778 8.98844445 43.23555556 16.15644445l44.82844444-23.43822223c15.01866667 10.80888889 28.672 23.43822222 40.50488889 37.66044445l-20.25244445 46.42133333c8.53333333 13.42577778 15.36 27.98933333 20.13866667 43.57688889l48.35555556 15.81511111z m-216.63288889-63.26044444c-54.38577778 0-98.53155555 44.14577778-98.53155556 98.53155556s44.14577778 98.53155555 98.53155556 98.53155555 98.53155555-44.14577778 98.53155556-98.53155555c0-54.49955555-44.14577778-98.53155555-98.53155556-98.53155556zM424.73244445 439.75111111m-50.97244445 0a50.97244445 50.97244445 0 1 1 101.94488889 0 50.97244445 50.97244445 0 1 1-101.94488889 0ZM817.83466667 194.67377778000002c0.91022222 5.34755555 1.36533333 10.92266667 1.36533333 16.49777777 0 3.072-0.11377778 6.03022222-0.45511111 8.98844445l-22.07288889 8.76088889c-1.70666667 7.73688889-4.55111111 15.13244445-8.192 21.95911111l10.69511111 21.16266667c-5.00622222 6.82666667-10.92266667 13.08444445-17.52177778 18.54577778l-21.84533333-9.55733334c-6.37155555 3.98222222-13.19822222 7.05422222-20.48 9.216l-7.28177778 22.64177778c-5.12 0.79644445-10.35377778 1.25155555-15.70133333 1.25155556-3.41333333 0-6.82666667-0.22755555-10.12622222-0.45511112l-8.53333334-22.18666666c-7.168-1.70666667-13.99466667-4.20977778-20.25244444-7.62311112l-20.93511111 10.92266667c-7.05422222-5.12-13.42577778-11.03644445-19.00088889-17.63555555l9.44355556-21.73155556c-3.98222222-6.25777778-7.168-13.08444445-9.44355556-20.48l-22.64177778-7.28177778c-0.91022222-5.34755555-1.36533333-10.92266667-1.36533333-16.49777778 0-3.072 0.11377778-6.03022222 0.45511111-8.98844444l22.07288889-8.76088889c1.70666667-7.73688889 4.55111111-15.13244445 8.192-21.95911111l-10.69511111-21.16266666c5.00622222-6.82666667 10.92266667-13.08444445 17.52177778-18.54577778l21.84533333 9.55733333c6.37155555-3.98222222 13.19822222-7.05422222 20.48-9.216l7.28177777-22.64177778c5.12-0.79644445 10.35377778-1.25155555 15.70133334-1.25155555 3.41333333 0 6.82666667 0.22755555 10.12622222 0.45511111l8.53333334 22.18666667c7.168 1.70666667 13.99466667 4.20977778 20.25244444 7.6231111l20.93511111-10.92266666c7.05422222 5.12 13.42577778 11.03644445 19.00088889 17.63555556l-9.44355556 21.73155555c3.98222222 6.25777778 7.168 13.08444445 9.44355556 20.48l22.64177778 7.28177778z m-101.60355556-29.58222223c-25.48622222 0-46.19377778 20.70755555-46.19377778 46.19377778 0 25.48622222 20.70755555 46.19377778 46.19377778 46.19377778 25.48622222 0 46.19377778-20.70755555 46.19377778-46.19377778 0-25.6-20.70755555-46.19377778-46.19377778-46.19377778zM716.34488889 211.05777778000004m-23.89333334 0a23.89333333 23.89333333 0 1 1 47.78666667 0 23.89333333 23.89333333 0 1 1-47.78666667 0Z"  horiz-adv-x="1024" />

    
    <glyph glyph-name="icon-b-people" unicode="&#59087;" d="M0.234057 387.320686C0.234057 106.43748600000004 227.913143-121.27085699999998 508.781714-121.27085699999998c280.868571 0 508.576914 227.693714 508.576915 508.576914 0 280.868571-227.693714 508.562286-508.576915 508.562286C227.927771 895.882971 0.234057 668.189257 0.234057 387.320686zM417.031314 522.181486a88.502857 88.502857 0 1 0 177.020343 0 88.502857 88.502857 0 0 0-177.005714 0z m81.8176-361.252572c-61.0304 0-116.297143 11.117714-156.320914 29.227886a203.922286 203.922286 0 0 0-1.653029 26.448457c0 104.565029 74.605714 189.381486 166.721829 189.381486 92.116114 0 166.736457-84.816457 166.736457-189.381486 0-5.763657-0.3072-11.410286-0.731428-17.086171-40.535771-23.464229-103.7312-38.590171-174.752915-38.590172zM663.010743 470.718171a48.171886 48.171886 0 1 1 96.329143 0 48.171886 48.171886 0 0 1-96.329143 0zM712.206629 407.420343c-25.834057 0-49.195886-12.346514-65.770058-32.007314 27.691886-18.826971 47.864686-56.393143 52.589715-101.0688 2.779429-0.1024 5.558857-0.1024 8.440685-0.1024 38.6048 0 73.084343 8.235886 95.100343 20.992 0.2048 3.101257 0.4096 6.187886 0.4096 9.274514 0 56.802743-40.6528 102.912-90.770285 102.912zM255.853714 470.718171a48.171886 48.171886 0 1 1 96.343772 0 48.171886 48.171886 0 0 1-96.329143 0zM303.0016 407.420343c25.834057 0 49.195886-12.346514 65.770057-32.007314-27.691886-18.826971-47.864686-56.393143-52.589714-101.0688-2.779429-0.1024-5.558857-0.1024-8.440686-0.1024-38.6048 0-73.084343 8.235886-95.100343 20.992-0.2048 3.101257-0.4096 6.187886-0.4096 9.274514 0.1024 56.802743 40.5504 102.912 90.770286 102.912z"  horiz-adv-x="1024" />

    
    <glyph glyph-name="icon-b-ttms" unicode="&#59088;" d="M0.234057 387.320686C0.234057 106.43748600000004 227.913143-121.27085699999998 508.781714-121.27085699999998c280.868571 0 508.576914 227.693714 508.576915 508.576914 0 280.868571-227.693714 508.562286-508.576915 508.562286C227.927771 895.882971 0.234057 668.189257 0.234057 387.320686zM336.062171 372.23862899999995a177.239771 177.239771 0 0 0 74.708115 117.204114 123.435886 123.435886 0 0 0-10.5472 27.882057 206.6432 206.6432 0 0 1-93.915429-148.333714 116.180114 116.180114 0 0 0 27.326172 3.247543h2.428342z m350.5152 0c10.283886-0.263314 20.304457-1.887086 30.047086-4.593372a207.228343 207.228343 0 0 1-88.239543 145.890743 115.448686 115.448686 0 0 0-11.629714-27.3408 179.0976 179.0976 0 0 0 69.822171-113.956571z m-97.162971-188.913372a178.263771 178.263771 0 0 0-78.218971-18.139428c-29.783771 0-57.6512 7.314286-82.0224 20.304457a121.314743 121.314743 0 0 0-20.567772-21.928229 206.365257 206.365257 0 0 1 102.590172-27.3408c35.986286 0 69.822171 9.216 99.328 25.453714a114.293029 114.293029 0 0 0-21.109029 21.650286zM516.169143 548.7616m-94.544457 0a94.544457 94.544457 0 1 1 189.088914 0 94.544457 94.544457 0 1 1-189.088914 0ZM331.819886 253.74720000000002m-94.544457 0a94.544457 94.544457 0 1 1 189.088914 0 94.544457 94.544457 0 1 1-189.088914 0ZM683.285943 253.74720000000002m-94.544457 0a94.544457 94.544457 0 1 1 189.088914 0 94.544457 94.544457 0 1 1-189.088914 0Z"  horiz-adv-x="1024" />

    
    <glyph glyph-name="icon-eye-solid" unicode="&#59083;" d="M1023.997 384.169c0-99.79-211.129-312.67-511.999-312.67C218.787 71.49900000000002 0 280.875 0 384.169c0 103.279 219.73 312.334 511.999 312.334 303.234-0.001 512.071-209.057 511.999-312.335L1023.998 384.169zM512.45 639.471C376.184 639.471 265.72 525.087 265.72 384c0-141.089 110.463-255.471 246.729-255.471 136.307 0 246.774 114.383 246.774 255.471C759.223 525.087 648.756 639.471 512.45 639.471L512.45 639.471zM511.999 547.0989999999999c-86.778 0-157.126-72.827-157.126-162.673 0-89.836 70.348-162.677 157.126-162.677s157.097 72.841 157.097 162.677C669.096 474.273 598.776 547.0989999999999 511.999 547.0989999999999L511.999 547.0989999999999z"  horiz-adv-x="1024" />

    
    <glyph glyph-name="icon-upload" unicode="&#59084;" d="M793.6 537.6C768 668.8 652.8 768 512 768s-256-99.2-281.6-230.4C134.4 512 64 422.4 64 320c0-124.8 99.2-224 224-224h32v64h-32c-89.6 0-160 70.4-160 160s70.4 160 160 160c0 124.8 99.2 224 224 224s224-99.2 224-224c89.6 0 160-70.4 160-160s-70.4-160-160-160h-32v-64h32c124.8 0 224 99.2 224 224 0 102.4-70.4 192-166.4 217.6zM540.8 406.4c-12.8 9.6-25.6 12.8-38.4 6.4-3.2 0-6.4-3.2-9.6-6.4l-96-92.8c-12.8-12.8-12.8-32 0-44.8 12.8-12.8 35.2-12.8 48 0l38.4 35.2v-272c0-19.2 16-32 32-32 19.2 0 32 16 32 32V304l38.4-35.2c12.8-12.8 35.2-12.8 48 0 12.8 12.8 12.8 32 0 44.8l-92.8 92.8z"  horiz-adv-x="1024" />

    
    <glyph glyph-name="icon-forbid" unicode="&#59082;" d="M512 864a480 480 0 1 1 480-480A480 480 0 0 1 512 864z m384-480a379.2 379.2 0 0 0-81.12-235.2L276.8 686.88A379.2 379.2 0 0 0 512 768a384 384 0 0 0 384-384zM128 384a379.2 379.2 0 0 0 81.12 235.2L747.2 81.12A379.2 379.2 0 0 0 512 0a384 384 0 0 0-384 384z"  horiz-adv-x="1024" />

    
    </font>
</defs>
</svg>
