<?xml version="1.0" standalone="no"?>
<!DOCTYPE svg PUBLIC "-//W3C//DTD SVG 1.1//EN" "http://www.w3.org/Graphics/SVG/1.1/DTD/svg11.dtd" >
<!--
2013-9-30: Created.
-->
<svg>
<metadata>
Created by iconfont
</metadata>
<defs>

<font id="wk" horiz-adv-x="1024" >
  <font-face
    font-family="wk"
    font-weight="500"
    font-stretch="normal"
    units-per-em="1024"
    ascent="896"
    descent="-128"
  />
    <missing-glyph />
    
    <glyph glyph-name="back-large" unicode="&#59011;" d="M514.195342-128a49.408 49.408 0 0 0-35.015111 14.506667L15.535787 350.00888899999995a49.550222 49.550222 0 1 0 70.087111 70.058667l463.502222-463.502223a49.550222 49.550222 0 0 0-35.015111-84.593777zM51.830898 335.55911100000003a49.550222 49.550222 0 0 0-35.015111 84.593778L478.184676 881.521778a49.550222 49.550222 0 0 0 69.973333-70.058667l-461.368889-461.368889a49.408 49.408 0 0 0-34.958222-14.535111z m1452.913778-0.568889h-1453.511112a49.550222 49.550222 0 1 0 0 99.100445h1453.511112a49.550222 49.550222 0 0 0 0-99.100445z"  horiz-adv-x="1554" />

    
    <glyph glyph-name="good" unicode="&#59008;" d="M229.26006125 479.30680125H96.19470781a64.14481594 64.14481594 0 0 1-63.92120344-69.49554094l37.37521688-447.00119812a64.16078813 64.16078813 0 0 1 63.92120344-58.81006219h95.69013656a32.0724075 32.0724075 0 0 1 32.0724075 32.0724075V447.21842156a32.08837969 32.08837969 0 0 1-32.0724075 32.08837969zM926.18006656 479.30680125H639.109655C737.88244906 845.264475 570.44467437 864 570.44467437 864c-71.04485531 0-56.31838125-56.2544925-61.65313406-65.59829625 0-135.82856344-109.10688094-249.26394281-162.10302187-296.35032656a63.63370125 63.63370125 0 0 1-21.19526157-47.64541407v-518.33355562c0-17.71329656 14.35911094-32.0724075 32.07240844-32.0724075h374.99800313a128.11393594 128.11393594 0 0 1 114.95274843 71.30041219c29.19739125 59.08159219 64.95940406 144.85292156 87.75189657 215.30680218 22.05776625 68.15386687 42.10302187 152.69532844 53.85864562 212.14428282a64.09689844 64.09689844 0 0 1-62.9468925 76.55530406z"  horiz-adv-x="1024" />

    
    <glyph glyph-name="logout" unicode="&#59007;" d="M584.470443 218.082c-3.66 0-6.515 0-9.36 0-97.805 0-195.607-0.01-293.414 0-14.5 0.005-23.95 6.65-26.28 18.54-0.458 2.375-0.415 4.87-0.415 7.3-0.018 86.915-0.02 173.825-0.012 260.739 0.003 16.485 8.93 25.255 25.672 25.255 98.247 0.005 196.497 0.005 294.749 0.005 2.645 0 5.31 0 9.06 0 0 2.82 0 5.362 0 7.912 0 77.352-0.01 154.71 0.01 232.069 0 10.645 5.075 19.135 13.67 22.387 9.89 3.745 18.665 2.02 26.12-5.857 4.275-4.517 8.93-8.672 13.32-13.065 55.385-55.265 110.76-110.555 166.13-165.82 71.12-70.965 142.245-141.912 213.365-212.874 11.84-11.802 11.905-24.252 0.205-35.927-101.78-101.605-203.549-203.219-305.359-304.784-28.955-28.885-58.065-57.595-86.995-86.505-7.445-7.45-15.75-10.715-25.915-6.855-9.885 3.75-14.54 11.53-14.54 23.765-0.015 74.905-0.01 149.82-0.01 224.724C584.470443 211.73699999999997 584.470443 214.37699999999995 584.470443 218.082zM401.643443 789.828c0-29.415 0-58.215 0-87.827-2.882 0-5.477 0-8.07 0-74.465 0-148.93 0.01-223.394-0.005-47.187-0.007-81.935-34.827-81.937-82.107-0.007-163.602 0.293-327.202-0.197-490.791-0.135-43.285 32.795-74.47 63.24-80.165 6.727-1.245 13.677-1.81 20.525-1.825 73.797-0.13 147.597-0.08 221.397-0.08 2.622 0 5.247 0 8.302 0 0-29.325 0-58.115 0-87.325-1.05-0.21-2.275-0.68-3.503-0.68-78.467 0-156.942-0.8-235.389 0.34-76.67 1.1-144.565 59.285-159.197 134.595-2.065 10.61-3.075 21.595-3.087 32.405-0.19 165.385-0.627 330.762 0.102 496.134 0.305 69.077 34.625 118.665 94.56 150.892 21.145 11.375 44.502 16.512 68.577 16.572 77.797 0.21 155.595 0.08 233.394 0.075C398.281443 790.035 399.593443 789.92 401.643443 789.828z"  horiz-adv-x="1027" />

    
    <glyph glyph-name="version" unicode="&#59057;" d="M893.7 619.7l-8.5 8.5-105.1 105.2-98.3 98.3c-0.2 0.2-0.4 0.3-0.7 0.3H150c-11 0-20-9-20-20v-856c0-11 9-20 20-20h724c11 0 20 9 20 20V619c0 0.2-0.1 0.5-0.3 0.7zM366.6 514.1h46.2c0.4 0 0.8-0.2 0.9-0.6l90.6-216.8c3-7.2 5.3-15.5 6.8-25h1.1c1.2 8.3 3.7 16.7 7.6 25.3L612 513.5c0.2 0.4 0.5 0.6 0.9 0.6h44.4c0.7 0 1.2-0.7 0.9-1.4l-123-276.1c-0.2-0.4-0.5-0.6-0.9-0.6h-47c-0.4 0-0.8 0.2-0.9 0.6L365.7 512.7c-0.3 0.6 0.2 1.4 0.9 1.4z m312.7-409c0-0.5-0.4-1-1-1H345.7c-0.5 0-1 0.4-1 1v57.7c0 0.5 0.4 1 1 1h332.5c0.5 0 1-0.4 1-1v-57.7zM817.5 609H672.1c-0.5 0-1 0.4-1 1V755.5c0 0.9 1.1 1.3 1.7 0.7l66.4-66.4 79-79.1c0.7-0.6 0.2-1.7-0.7-1.7z"  horiz-adv-x="1024" />

    
    <glyph glyph-name="yonghuxinxi" unicode="&#59359;" d="M545.636075 343.749274c8.573259-1.451048 17.084097-3.25309 25.537629-5.262864 15.498996-3.689019 30.732955-8.447393 45.64355-14.004969 3.355421-1.249457 6.682189-2.571568 10.000771-3.914146 0.036839-0.014326 0.065492-0.026606 0.101307-0.039909 0.304945-0.130983 0.683569-0.296759 1.177825-0.508583 1.971911-0.848321 3.929496-1.729387 5.888104-2.611477 7.834432-3.52836 15.520485-7.374968 23.099091-11.404748 13.365402-7.109931 30.190603-3.416819 38.053688 9.897418 7.445576 12.603039 3.367701 30.631648-9.976212 37.724183-23.086811 12.281721-47.249117 22.403243-72.110341 30.252001 21.905916 13.344936 41.697681 30.086226 58.072627 49.295729 37.511335 44.002167 58.424644 99.469456 58.640562 157.169599-0.215918 57.995879-21.336958 112.789832-58.640562 157.171646-34.879392 41.501206-86.024236 70.637804-139.5278 80.33056-57.867966 10.491958-117.844965 0.691755-168.805614-28.674063-49.291636-28.402887-86.002746-73.689303-106.098433-126.253472-19.940145-52.130288-19.514449-112.99347 0-165.146271 19.203364-51.329039 55.029314-95.040586 101.991905-123.790374-34.570353-10.917654-67.714218-26.260084-98.28856-45.722344-56.978712-36.270065-104.72004-86.269829-138.317229-144.540977-35.797297-62.09422-54.333466-133.474944-54.534034-204.89967-0.045025-15.037485 12.68388-27.581172 27.809369-27.581172 15.196097 0 27.774577 12.544711 27.813462 27.572986 0.027629 8.471952 0.302899 16.927531 0.836041 25.37697 0.26913 4.222161 0.641613 8.438183 1.044796 12.648065 0.204661 2.104941 0.435928 4.209882 0.673335 6.310729 0.091074 0.799202 0.5137 3.964288 0.705058 5.435803 2.461051 16.675798 6.112208 33.169447 10.723226 49.390897 2.316765 8.141424 4.967128 16.188704 7.819083 24.163329 1.426489 3.989871 2.952238 7.942903 4.511757 11.879562 0.402159 1.016143 0.827855 2.0241 1.24434 3.035126 0.236384 0.51984 1.899256 4.436032 2.300392 5.337565 6.730285 15.057951 14.542204 29.619598 23.143093 43.701315 4.124947 6.754844 8.513908 13.357216 13.049201 19.84907 2.2656 3.248997 4.606925 6.445806 6.971785 9.622148 0.581238 0.780783 1.176802 1.548262 1.766226 2.321882-0.130983-0.207731 2.975774 3.768837 3.641947 4.592598 10.377348 12.814864 21.660322 24.8909 33.593096 36.295648 5.694699 5.451152 11.607362 10.682293 17.622356 15.774265 3.013637 2.550079 6.081509 5.03569 9.165754 7.490601 0.384763 0.304945 1.342578 1.047866 2.12643 1.657756 1.599428 1.199315 3.201925 2.39556 4.815679 3.578502 13.264095 9.715269 27.213805 18.500353 41.608653 26.483164 6.335289 3.51608 12.792351 6.803963 19.316951 9.957793 3.046383 1.472538 6.132674 2.8847 9.222035 4.28049 1.90028 0.858554 3.816932 1.686409 5.729491 2.515287 0.315178 0.12689 0.725524 0.291642 1.270946 0.5137 14.387685 5.838985 29.17139 10.710946 44.161802 14.802124 14.988366 4.097318 30.242791 7.182586 45.614897 9.479909 0.454348 0.064468 0.825808 0.118704 1.133823 0.162706 1.360997 0.167822 2.721994 0.341784 4.086062 0.500397 4.213975 0.48914 8.438183 0.876973 12.662391 1.234107 8.5487 0.721431 17.125029 1.091868 25.698289 1.251503 15.94618 0.301875 31.903617-0.50142 47.76691-2.117221 1.172709-0.121773 6.963599-0.842181 8.023744-0.948605C538.700105 344.881051 542.170137 344.334605 545.636075 343.749274L545.636075 343.749274zM559.414893 418.21015C564.091402 420.236296 561.272193 418.986839 559.414893 418.21015L559.414893 418.21015 559.414893 418.21015zM298.942533 614.263337C298.624285 611.725538 298.750151 612.79387 298.942533 614.263337L298.942533 614.263337 298.942533 614.263337zM521.457396 406.904663c-3.092431-0.633427-6.203282-1.161453-9.327436-1.655709-0.232291-0.036839-0.527003-0.080841-0.847298-0.12689-1.466398-0.170892-2.932796-0.327458-4.400217-0.470721-13.419637-1.333368-26.967188-1.283226-40.402175-0.146333-1.315972 0.109494-5.547343 0.624217-7.101745 0.796132-1.99647 0.313132-3.988848 0.647753-5.974062 1.007957-6.67912 1.209548-13.285584 2.804882-19.818371 4.641717-5.962805 1.675152-11.836583 3.663436-17.630542 5.844102-1.179872 0.446162-2.353604 0.914836-3.527336 1.38351-3.200902 1.400906-6.359848 2.90619-9.488095 4.451382-11.285021 5.581112-22.001083 12.259208-32.126698 19.703761-0.982374 0.776689-1.959631 1.558495-2.928702 2.352581-2.341325 1.90335-4.622274 3.883447-6.878664 5.89322-4.89959 4.334725-9.543354 8.945743-14.022365 13.704117-3.266393 3.474125-6.383384 7.080256-9.397021 10.772344-0.063445 0.149403-3.490497 4.602831-4.375657 5.843078-2.057869 2.867304-4.01136 5.806239-5.922896 8.766664-3.281743 5.101181-6.297426 10.366092-9.134031 15.72617-1.426489 2.686179-2.765997 5.415336-4.069689 8.16496-0.649799 1.354857-1.263783 2.728134-1.880837 4.097318-0.064468 0.158612-0.12996 0.320295-0.203638 0.500397-4.859681 11.921517-8.486278 24.317848-11.101849 36.911678-0.635473 3.065825-1.166569 6.155187-1.664919 9.251711-0.025583 0.159636-0.054235 0.346901-0.084934 0.549515-0.121773 1.025353-0.25071 2.047636-0.358157 3.072989-0.751107 6.90527-1.083681 13.839193-1.160429 20.779256-0.071631 6.432503 0.208754 12.863982 0.714268 19.273972 0.199545 2.556219 0.478907 5.105275 0.783853 7.65126 0.037862 0.272199 0.074701 0.522909 0.105401 0.726547 0.315178 2.069125 0.686638 4.123924 1.068332 6.180769 2.334161 12.670577 5.969968 25.095561 10.56973 37.131689 0.438998 1.14201 0.901533 2.275833 1.362021 3.408633 1.217734 2.746554 2.51324 5.452175 3.843538 8.142447 2.915399 5.895267 6.15928 11.619642 9.601682 17.223267 3.165086 5.146207 6.602372 10.123568 10.197246 14.993482 0.160659 0.216941 0.37453 0.500397 0.605797 0.804319 0.51984 0.64366 1.032516 1.293459 1.558495 1.933025 2.222621 2.727111 4.542456 5.372358 6.90527 7.989975 7.572466 8.401344 15.891945 16.127306 24.712845 23.237237 0.402159 0.25685 4.646833 3.469008 5.858428 4.322445 2.481518 1.750877 5.015224 3.416819 7.563256 5.055133 5.54632 3.570315 11.292184 6.829546 17.133216 9.875928 2.716878 1.411139 5.467525 2.735297 8.238638 4.034896 1.349741 0.632403 2.712785 1.236154 4.082992 1.842974 5.921873 2.38328 11.960403 4.462638 18.066471 6.318916 5.977132 1.813299 12.0525 3.307326 18.161638 4.598738 3.092431 0.650823 6.194072 1.200338 9.304923 1.722224 0.364297 0.059352 0.726547 0.10847 1.089821 0.165776 1.175779 0.152473 3.232624 0.424672 4.137227 0.51984 13.406335 1.430582 26.948769 1.480724 40.387849 0.440022 1.856277-0.141216 3.706415-0.326435 5.554506-0.524956 0.070608-0.052189 5.975085-0.853437 7.572466-1.131777 6.696516-1.163499 13.320377-2.715855 19.872606-4.501524 5.981225-1.62808 11.870352-3.581572 17.680684-5.721305 1.088798-0.398066 4.311189-1.717108 5.944386-2.37714 2.400676-1.072425 4.786003-2.176572 7.148817-3.319605 11.406794-5.544273 22.243607-12.20088 32.489972-19.636223 0.220011-0.160659 0.506537-0.372483 0.812505-0.601704 0.647753-0.514723 1.301645-1.023306 1.947352-1.542122 2.353604-1.892093 4.656043-3.855818 6.928806-5.846148 4.925173-4.306072 9.602705-8.883321 14.114462-13.615089 4.001127-4.193509 7.780197-8.581446 11.419074-13.081946 0.848321-1.122567 1.680269-2.257413 2.508123-3.393283 2.073218-2.856048 4.045129-5.780657 5.978155-8.730848 3.322675-5.075599 6.370081-10.320043 9.243525-15.651468 1.440815-2.677992 2.802836-5.395894 4.130064-8.132214 0.664126-1.37123 1.299599-2.756787 1.935072-4.139274 0.178055-0.387833 0.327458-0.711198 0.456395-0.992607 5.021364-12.189623 8.773827-24.864294 11.440563-37.754882 0.636496-3.066849 1.172709-6.155187 1.671059-9.252735 0.035816-0.220011 0.078795-0.496304 0.121773-0.796132 0.172939-1.466398 0.333598-2.936889 0.479931-4.40738 0.696872-6.913457 0.982374-13.871939 1.00591-20.820188-0.022513-6.424316-0.310062-12.83533-0.857531-19.237133-0.11154-1.2689-0.601704-5.26491-0.785899-6.906294-0.406253-2.539846-0.845251-5.074575-1.332345-7.603165-2.427282-12.643971-6.149047-25.025976-10.829649-37.020148-0.183172-0.465604-0.3776-0.923022-0.564865-1.385557-0.283456-0.659009-0.603751-1.401929-0.814552-1.868557-1.249457-2.780323-2.586918-5.510504-3.950985-8.236592-2.955308-5.867638-6.239098-11.568477-9.722432-17.137309-3.142573-5.03876-6.551206-9.907651-10.106172-14.665001-0.796132-0.992607-1.601474-1.974981-2.410909-2.954285-2.246157-2.706645-4.585435-5.339612-6.963599-7.941879-4.066619-4.448312-8.375761-8.688893-12.803607-12.786211-2.217505-2.049682-4.500501-4.034896-6.79987-5.987365-1.182942-1.004887-5.680373-4.520967-6.55223-5.242398-9.29776-6.800893-19.193131-12.799514-29.459962-18.060331-2.720971-1.390673-5.486968-2.695389-8.267291-3.972475-1.013073-0.466628-2.037403-0.911766-3.061732-1.358951-0.063445-0.025583-0.12382-0.050142-0.181125-0.073678-6.218632-2.493797-12.58155-4.627391-19.006889-6.529717C533.678742 409.598005 527.589047 408.152073 521.457396 406.904663L521.457396 406.904663zM534.893406 253.199978c0-15.036461 12.648065-27.579125 27.808346-27.579125l362.138854 0c15.156188 0 27.808346 12.543687 27.808346 27.579125 0 15.035438-12.651135 27.577079-27.808346 27.577079L562.701752 280.777057C547.541471 280.777057 534.893406 268.234393 534.893406 253.199978L534.893406 253.199978zM924.840606 137.133519 562.701752 137.133519c-15.160281 0-27.808346-12.543687-27.808346-27.578102 0-15.033391 12.648065-27.582195 27.808346-27.582195l362.138854 0c15.156188 0 27.808346 12.548804 27.808346 27.582195C952.648952 124.590855 939.997817 137.133519 924.840606 137.133519L924.840606 137.133519zM924.840606-6.515135 562.701752-6.515135c-15.160281 0-27.808346-12.544711-27.808346-27.578102 0-15.029298 12.648065-27.576055 27.808346-27.576055l362.138854 0c15.156188 0 27.808346 12.546757 27.808346 27.576055C952.648952-19.059845 939.997817-6.515135 924.840606-6.515135L924.840606-6.515135z"  horiz-adv-x="1024" />

    
    <glyph glyph-name="danxingwenben" unicode="&#59360;" d="M189.901071 355.036341l189.352579 0 46.38647-114.987894 64.878636 0L317.309856 660.144294l-62.823837 0L81.279165 240.048447l64.87966 0L189.901071 355.036341zM276.503475 577.154161c2.740414 6.869455 5.184069 16.630772 7.339152 29.28907l1.467421 0c2.543939-13.924127 4.89345-23.686469 7.048533-29.28907l68.693522-174.654832L208.396307 402.499329 276.503475 577.154161zM65.129346 161.066605l894.566092 0 0-55.171554-894.566092 0 0 55.171554ZM550.697347 256.592238c18.593474-15.730263 43.641963-23.597441 75.153654-23.597441 43.840484 0 77.015048 17.808598 99.520621 53.42784l1.470491 0 0-46.37419 56.951083 0 0 193.09788c0 75.936483-39.142485 113.902166-117.42541 113.902166-42.273802 0-79.55694-9.311063-111.851461-27.933189l0-51.257407c32.094976 24.228821 67.617004 36.344766 106.567108 36.344766 43.837414 0 65.75868-24.50716 65.75868-73.499991l-96.290043-12.476149c-71.827909-9.221012-107.739816-41.856293-107.739816-97.902774C522.812253 293.565315 532.103874 272.320455 550.697347 256.592238zM595.760682 362.632343c10.077519 9.03784 28.427446 15.186887 55.04364 18.441001l76.03779 9.492188 0-28.746718c0-24.592095-8.123005-45.019333-24.364921-61.295018-16.247033-16.269545-36.896328-24.405853-61.945841-24.405853-18.009166 0-32.489972 4.519943-43.447535 13.55983-10.962679 9.03784-16.441461 20.701484-16.441461 34.986839C580.641333 340.935182 585.680093 353.58734 595.760682 362.632343z"  horiz-adv-x="1024" />

    
    <glyph glyph-name="duoxingwenben" unicode="&#59361;" d="M64.713884 245.59579l892.684232 0 0-55.053873-892.684232 0 0 55.053873ZM511.057535 658.512121l446.340581 0 0-55.056943-446.340581 0 0 55.056943ZM189.225689 411.632337l188.95349 0 46.288233-114.748441 64.741513 0L316.369438 716.095607l-62.694901 0L80.833003 296.883897l64.74356 0L189.225689 411.632337zM275.649014 633.28046c2.731204 6.856152 5.172813 16.597003 7.319709 29.229718l1.467421 0c2.535753-13.895475 4.880147-23.636327 7.030114-29.229718l68.549236-174.288488L207.68204 458.991971 275.649014 633.28046zM511.057535 520.871297l446.340581 0 0-55.053873-446.340581 0 0 55.053873ZM64.713884 107.95906l892.684232 0 0-55.054897-892.684232 0 0 55.054897ZM511.057535 383.233544l446.340581 0 0-55.054897-446.340581 0 0 55.054897Z"  horiz-adv-x="1024" />

    
    <glyph glyph-name="zhengshu" unicode="&#59378;" d="M514.077312 193.326333c40.199561 0 70.936609 16.709567 92.211145 50.126654 1.876744 2.951215 3.570315 6.145977 5.279237 9.317203 19.652596-39.590694 52.199872-59.443857 97.718579-59.443857 40.196491 0 70.932516 16.709567 92.207052 50.126654 21.272489 33.419134 31.909757 80.859609 31.909757 142.327566 0 124.82596-39.174208 187.237405-117.515461 187.237405-41.081651 0-72.479755-16.748453-94.189196-50.242288-2.00568-3.100618-3.826142-6.459109-5.646604-9.812483-19.24225 40.009226-51.016931 60.055794-95.372138 60.055794-41.080627 0-72.475662-16.748453-94.186126-50.242288-21.714558-33.503045-32.573883-82.008782-32.573883-145.528468C393.919674 254.632607 433.973926 193.326333 514.077312 193.326333zM712.807469 514.23925c32.127721 0 48.196699-43.767829 48.196699-131.304512 0-87.220481-16.506952-130.828674-49.517787-130.828674-33.600259 0-50.39783 42.343387-50.39783 127.037325C661.089573 469.209684 678.329213 514.23925 712.807469 514.23925zM517.598508 514.23925c32.131815 0 48.196699-43.767829 48.196699-131.304512 0-87.220481-16.504906-130.828674-49.51574-130.828674-33.600259 0-50.395784 42.343387-50.395784 127.037325C465.884706 469.209684 483.124346 514.23925 517.598508 514.23925zM285.863656 479.79067l0-285.908682 64.385403 0 0 381.212258-56.681954-0.181125c-29.344329-24.019043-64.11525-42.345434-104.314811-54.984289l0-65.651232c12.763698 1.575892 26.77583 5.64558 42.035372 12.20395C246.544139 473.037872 277.05913 471.575568 285.863656 479.79067zM897.529587 829.233364 124.898615 829.233364c-35.558867 0-64.385403-28.827559-64.385403-64.385403l0-760.717641c0-35.558867 28.827559-64.387449 64.385403-64.387449l772.630972 0c35.558867 0 64.385403 28.828582 64.385403 64.387449L961.91499 764.846938C961.916013 800.405805 933.088454 829.233364 897.529587 829.233364zM897.529587 3.280975 124.898615 3.280975 124.898615 765.700375l772.630972 0L897.529587 3.280975z"  horiz-adv-x="1024" />

    
    <glyph glyph-name="xiala" unicode="&#59380;" d="M832.93236 543.213141 736.883817 543.213141 512.664126 321.995831 288.450575 543.213141 192.402031 543.213141 512.664126 227.231537ZM896.377344 827.274756 128.116913 827.274756c-35.358299 0-64.022129-28.66383-64.022129-64.022129l0-756.417709c0-35.358299 28.66383-64.024176 64.022129-64.024176l768.261455 0c35.359322 0 64.022129 28.665877 64.022129 64.024176l0 756.417709C960.399473 798.610926 931.73769 827.274756 896.377344 827.274756zM896.377344 5.991714 128.116913 5.991714 128.116913 764.100948l768.261455 0L896.378367 5.991714z"  horiz-adv-x="1024" />

    
    <glyph glyph-name="duoxuan" unicode="&#59385;" d="M826.442552 636.246001l-15.518438 37.422308c-184.594205-118.078279-318.340325-266.601964-378.600781-341.447603L285.270139 452.695568l-65.22656-54.614875 254.308987-270.169209C518.392594 244.878452 657.011698 473.647763 826.442552 636.246001zM898.217249 828.63473 125.781728 828.63473c-35.549657 0-64.370053-28.819372-64.370053-64.370053l0-760.527306c0-35.549657 28.819372-64.3721 64.370053-64.3721l772.435521 0c35.551704 0 64.370053 28.821419 64.370053 64.3721L962.587302 764.264677C962.587302 799.814334 933.769976 828.63473 898.217249 828.63473zM898.217249 2.889049 125.781728 2.889049 125.781728 765.117091l772.435521 0L898.217249 2.889049z"  horiz-adv-x="1024" />

    
    <glyph glyph-name="rili-xuanzhong" unicode="&#59109;" d="M496 240c-8 0-16 3.2-22.4 9.6l-144 144c-12.8 12.8-12.8 32 0 44.8 12.8 12.8 32 12.8 44.8 0L496 316.8l201.6 201.6c12.8 12.8 32 12.8 44.8 0 12.8-12.8 12.8-32 0-44.8l-224-224C512 243.2 504 240 496 240z m336-272H192c-52.8 0-96 43.2-96 96V672c0 52.8 43.2 96 96 96 17.6 0 32-14.4 32-32s-14.4-32-32-32-32-14.4-32-32v-608c0-17.6 14.4-32 32-32h640c17.6 0 32 14.4 32 32V672c0 17.6-14.4 32-32 32s-32 14.4-32 32 14.4 32 32 32c52.8 0 96-43.2 96-96v-608c0-52.8-43.2-96-96-96zM320 672c-17.6 0-32 14.4-32 32v64c0 17.6 14.4 32 32 32s32-14.4 32-32v-64c0-17.6-14.4-32-32-32z m256 32H448c-17.6 0-32 14.4-32 32s14.4 32 32 32h128c17.6 0 32-14.4 32-32s-14.4-32-32-32z m128-32c-17.6 0-32 14.4-32 32v64c0 17.6 14.4 32 32 32s32-14.4 32-32v-64c0-17.6-14.4-32-32-32z"  horiz-adv-x="1024" />

    
    <glyph glyph-name="xinfengyoujian" unicode="&#59115;" d="M864 0H160c-52.8 0-96 43.2-96 96V672c0 52.8 43.2 96 96 96h704c52.8 0 96-43.2 96-96v-576c0-52.8-43.2-96-96-96zM160 704c-17.6 0-32-14.4-32-32v-576c0-17.6 14.4-32 32-32h704c17.6 0 32 14.4 32 32V672c0 17.6-14.4 32-32 32H160z m352-425.6c-22.4 0-46.4 8-64 24L203.2 520c-12.8 11.2-14.4 32-3.2 44.8 11.2 12.8 32 14.4 44.8 3.2l244.8-217.6c12.8-11.2 30.4-11.2 43.2 0L777.6 568c12.8 11.2 33.6 11.2 44.8-3.2s11.2-33.6-3.2-44.8L576 302.4c-19.2-16-41.6-24-64-24z"  horiz-adv-x="1024" />

    
    <glyph glyph-name="haoyou" unicode="&#59122;" d="M608 211.2c-158.4 0-286.4 128-286.4 286.4S449.6 784 608 784s286.4-128 286.4-286.4-128-286.4-286.4-286.4z m0 508.8c-123.2 0-222.4-99.2-222.4-222.4S484.8 275.2 608 275.2s222.4 99.2 222.4 222.4S731.2 720 608 720zM289.6 251.2c-3.2 0-6.4 0-9.6 1.6-94.4 32-158.4 120-158.4 219.2 0 83.2 44.8 160 116.8 201.6 16 8 35.2 3.2 43.2-12.8s3.2-35.2-12.8-43.2C216 587.2 184 532.8 184 472c0-72 46.4-136 113.6-158.4 16-4.8 25.6-24 20.8-40-3.2-12.8-16-22.4-28.8-22.4zM936-16c-8 0-17.6 3.2-24 9.6-80 84.8-188.8 131.2-305.6 131.2-116.8 0-225.6-46.4-305.6-131.2-12.8-12.8-32-12.8-44.8-1.6s-12.8 32-1.6 44.8c92.8 97.6 217.6 152 352 152s259.2-54.4 352-152c12.8-12.8 11.2-33.6-1.6-44.8-4.8-4.8-12.8-8-20.8-8zM94.4 64c-8 0-16 3.2-22.4 8-12.8 12.8-12.8 32-1.6 44.8 60.8 64 142.4 105.6 230.4 116.8 17.6 1.6 33.6-9.6 35.2-27.2 1.6-17.6-9.6-33.6-27.2-35.2-73.6-9.6-140.8-44.8-192-97.6-4.8-6.4-12.8-9.6-22.4-9.6z"  horiz-adv-x="1024" />

    
    <glyph glyph-name="gengduoguanxi" unicode="&#59123;" d="M235.2 0c-16 0-30.4 1.6-46.4 6.4C144 17.6 105.6 48 83.2 88c-48 84.8-19.2 192 64 240 40 24 88 30.4 132.8 17.6 44.8-12.8 83.2-41.6 107.2-81.6s30.4-88 17.6-132.8S363.2 48 323.2 24c-27.2-16-57.6-24-88-24z m0 288c-19.2 0-38.4-4.8-56-14.4-52.8-30.4-72-99.2-41.6-153.6 14.4-25.6 38.4-44.8 68.8-52.8 28.8-8 59.2-3.2 84.8 11.2 25.6 14.4 44.8 38.4 52.8 67.2s3.2 59.2-11.2 84.8-38.4 44.8-68.8 52.8c-9.6 3.2-19.2 4.8-28.8 4.8z m553.6-288c-30.4 0-60.8 8-88 24-40 24-70.4 60.8-81.6 107.2S612.8 224 636.8 264c24 40 60.8 70.4 107.2 81.6 44.8 12.8 92.8 6.4 132.8-17.6 84.8-48 113.6-156.8 64-240-24-40-60.8-70.4-107.2-81.6-14.4-4.8-28.8-6.4-44.8-6.4z m0 288c-9.6 0-19.2-1.6-28.8-3.2-28.8-8-52.8-25.6-67.2-52.8-14.4-25.6-19.2-56-11.2-84.8 8-28.8 25.6-52.8 52.8-67.2 25.6-14.4 56-19.2 84.8-11.2 28.8 8 52.8 25.6 67.2 52.8 30.4 52.8 12.8 121.6-41.6 153.6-17.6 8-36.8 12.8-56 12.8zM512 480c-97.6 0-176 78.4-176 176S414.4 832 512 832s176-78.4 176-176-78.4-176-176-176z m0 288c-62.4 0-112-49.6-112-112s49.6-112 112-112 112 49.6 112 112-49.6 112-112 112z m318.4-486.4h-1.6c-17.6 1.6-30.4 16-30.4 33.6v3.2c0 6.4 1.6 11.2 1.6 17.6 0 110.4-62.4 209.6-161.6 259.2-16 8-22.4 27.2-14.4 43.2 8 16 27.2 22.4 43.2 14.4C788.8 592 864 472 864 336c0-8 0-14.4-1.6-22.4v-3.2c0-16-14.4-28.8-32-28.8zM512-16c-70.4 0-139.2 20.8-196.8 60.8-14.4 9.6-19.2 30.4-8 44.8 9.6 14.4 30.4 19.2 44.8 8 48-32 104-49.6 161.6-49.6 57.6 0 113.6 17.6 161.6 49.6 14.4 9.6 35.2 6.4 44.8-8 9.6-14.4 6.4-35.2-8-44.8-60.8-40-129.6-60.8-200-60.8zM193.6 281.6c-16 0-30.4 12.8-32 30.4v3.2c0 6.4-1.6 14.4-1.6 20.8 0 136 75.2 256 198.4 316.8 16 8 35.2 1.6 43.2-14.4s1.6-35.2-14.4-43.2C286.4 545.6 224 446.4 224 336c0-6.4 0-11.2 1.6-16v-3.2c1.6-17.6-12.8-33.6-30.4-33.6 0-1.6-1.6-1.6-1.6-1.6z"  horiz-adv-x="1024" />

    
    <glyph glyph-name="shouji" unicode="&#59124;" d="M800-64H224c-52.8 0-96 43.2-96 96V736c0 52.8 43.2 96 96 96h576c52.8 0 96-43.2 96-96v-704c0-52.8-43.2-96-96-96zM224 768c-17.6 0-32-14.4-32-32v-704c0-17.6 14.4-32 32-32h576c17.6 0 32 14.4 32 32V736c0 17.6-14.4 32-32 32H224z m384-704H416c-17.6 0-32 14.4-32 32s14.4 32 32 32h192c17.6 0 32-14.4 32-32s-14.4-32-32-32z"  horiz-adv-x="1024" />

    
    <glyph glyph-name="fujian" unicode="&#59125;" d="M342.4-57.6c-72 0-140.8 28.8-192 80s-80 120-80 192 28.8 140.8 80 192c12.8 12.8 32 12.8 44.8 0 12.8-12.8 12.8-32 0-44.8-40-40-60.8-91.2-60.8-147.2s22.4-107.2 60.8-147.2c40-40 91.2-60.8 147.2-60.8 56 0 107.2 22.4 147.2 60.8l339.2 339.2c40 40 60.8 91.2 60.8 147.2 0 56-22.4 107.2-60.8 147.2-40 40-91.2 60.8-147.2 60.8s-107.2-22.4-147.2-60.8c-12.8-12.8-32-12.8-44.8 0-12.8 12.8-12.8 32 0 44.8 51.2 51.2 120 80 192 80s140.8-28.8 192-80 80-120 80-192-28.8-140.8-80-192L534.4 22.4c-51.2-51.2-120-80-192-80z m0 240c-8 0-16 3.2-22.4 9.6-12.8 12.8-12.8 32 0 44.8l176 176c33.6 33.6 33.6 89.6 0 124.8-16 16-38.4 25.6-62.4 25.6s-46.4-9.6-62.4-25.6l-176-176c-12.8-12.8-32-12.8-44.8 0-12.8 12.8-12.8 32 0 44.8l176 176c28.8 28.8 67.2 44.8 107.2 44.8s78.4-16 107.2-44.8c59.2-59.2 59.2-155.2 0-214.4l-176-176c-6.4-6.4-14.4-9.6-22.4-9.6z"  horiz-adv-x="1024" />

    
    <glyph glyph-name="jinbi" unicode="&#59130;" d="M512 512c-46.4 0-448 3.2-448 128s401.6 128 448 128c46.4 0 448-3.2 448-128S558.4 512 512 512zM129.6 640c22.4-24 160-64 382.4-64s360 40 382.4 64c-22.4 24-160 64-382.4 64-222.4 0-360-40-382.4-64zM512 256c-46.4 0-448 3.2-448 128 0 17.6 14.4 32 32 32s30.4-12.8 32-30.4c16-24 155.2-65.6 384-65.6s368 41.6 384 65.6c1.6 16 14.4 30.4 32 30.4s32-14.4 32-32c0-124.8-401.6-128-448-128z m0-256c-46.4 0-448 3.2-448 128 0 17.6 14.4 32 32 32s30.4-12.8 32-30.4c16-24 155.2-65.6 384-65.6s368 41.6 384 65.6c1.6 16 14.4 30.4 32 30.4s32-14.4 32-32c0-124.8-401.6-128-448-128z"  horiz-adv-x="1024" />

    
    <glyph glyph-name="riqi" unicode="&#59147;" d="M832-32H192c-52.8 0-96 43.2-96 96V672c0 52.8 43.2 96 96 96 17.6 0 32-14.4 32-32s-14.4-32-32-32-32-14.4-32-32v-608c0-17.6 14.4-32 32-32h640c17.6 0 32 14.4 32 32V672c0 17.6-14.4 32-32 32s-32 14.4-32 32 14.4 32 32 32c52.8 0 96-43.2 96-96v-608c0-52.8-43.2-96-96-96zM320 672c-17.6 0-32 14.4-32 32v64c0 17.6 14.4 32 32 32s32-14.4 32-32v-64c0-17.6-14.4-32-32-32z m256 32H448c-17.6 0-32 14.4-32 32s14.4 32 32 32h128c17.6 0 32-14.4 32-32s-14.4-32-32-32z m128-32c-17.6 0-32 14.4-32 32v64c0 17.6 14.4 32 32 32s32-14.4 32-32v-64c0-17.6-14.4-32-32-32zM512 128c-3.2 0-6.4 0-9.6 1.6-16 4.8-25.6 24-20.8 40L595.2 512H384c-17.6 0-32 14.4-32 32s14.4 32 32 32h211.2c20.8 0 40-9.6 51.2-27.2 12.8-16 16-38.4 8-57.6L540.8 148.8c-3.2-12.8-16-20.8-28.8-20.8z"  horiz-adv-x="1024" />

    
    <glyph glyph-name="house" unicode="&#59006;" d="M146.29 344.241v-326.583c0-36.544 36.602-73.041 73.175-73.041h585.122c36.6 0 73.173 36.497 73.173 73.041V344.241L512.01 662.013 146.29 344.241z m475.436-107.414v-182.626H402.324V236.827c0 40.306 32.779 73.043 73.144 73.043h73.172c40.334 0 73.086-32.737 73.086-73.043z m399.87 134.753c-5.422-15.192-19.657-25.197-35.609-25.197h-54.915L512.01 710.3969999999999 93.007 346.38300000000004H38.091c-15.953 0-30.185 10.005-35.61 25.197-5.629 15.138-1.283 32.066 10.879 42.524l445.628 387.46c15.078 13.124 34.064 19.627 53.022 19.627 18.986 0 37.972-6.504 53.049-19.627l129.81-112.865v59.495c0 20.123 16.391 36.484 36.572 36.484h36.572c20.181 0 36.572-16.361 36.572-36.484v-154.849l206.103-179.241c12.104-10.458 16.507-27.386 10.908-42.524z"  horiz-adv-x="1024" />

    
    <glyph glyph-name="phoneing" unicode="&#59100;" d="M89.472 671.498c0 0 75.008 159.424 201.792 0 126.528-159.616 0-206.4 0-206.4s-84.352-79.808-18.816-131.456c65.664-51.456 225.28-192.256 225.28-192.256s63.232-84.288 131.2-23.36c84.48 70.144 117.312 81.984 182.912 32.768 114.496-85.376 150.272-171.264-23.232-239.232-192.384-93.824-534.784 229.888-534.784 229.888s-337.856 323.648-164.352 530.048zM525.76 589.0029999999999c0 0-63.232-6.72-51.712 59.2 5.312 29.952 56.32 39.808 103.232 25.536 47.168-14.016 222.912-91.392 230.016-288.512 0 0-12.992-55.296-54.208-44.352-44.288 11.776-32.64 95.616-35.136 111.936-2.24 16.384-63.104 143.168-192.192 136.192zM647.616 760.203c0 0-77.376-8.064-63.104 72.256 6.336 36.864 68.928 48.896 126.528 31.68 57.408-17.28 272.704-112 281.216-353.152 0 0-18.432-75.264-65.792-54.72-41.408 18.24-43.52 120-46.272 140.096-3.136 20.096-74.304 172.48-232.576 163.84z"  horiz-adv-x="1024" />

    
    <glyph glyph-name="catalog" unicode="&#59001;" d="M392 564l480 0c36 0 60 24 60 60 0 36-24 60-60 60L392 684C356 684 332 660 332 624 332 588 356 564 392 564zM872 444L392 444C356 444 332 420 332 384c0-36 24-60 60-60l480 0c36 0 60 24 60 60C932 420 908 444 872 444zM872 204L392 204c-36 0-60-24-60-60 0-36 24-60 60-60l480 0c36 0 60 24 60 60C932 180 908 204 872 204zM152 684C116 684 92 660 92 624c0-36 24-60 60-60s60 24 60 60C212 660 188 684 152 684zM152 444C116 444 92 420 92 384c0-36 24-60 60-60s60 24 60 60C212 420 188 444 152 444zM152 204c-36 0-60-24-60-60 0-36 24-60 60-60s60 24 60 60C212 180 188 204 152 204z"  horiz-adv-x="1024" />

    
    <glyph glyph-name="doc" unicode="&#59002;" d="M319.52138094 536.8061578100001l382.84762969 0.354c21.05964188 0 38.13606375 17.07546281 38.13606375 38.13606375 0 21.05964188-17.07642187 38.13510469-38.13606376 38.13510469l-382.84762968-0.354c-21.06156 0-38.13702281-17.06586937-38.13702281-38.13606375C281.38435719 553.88162063 298.45982 536.8061578100001 319.52138094 536.8061578100001zM319.52138094 384.26286188l382.84762969 0.354c21.05964188 0 38.13606375 17.07546281 38.13606375 38.13510468 0 21.05964188-17.07642187 38.13510469-38.13606376 38.13510469l-382.84762968-0.354c-21.06156 0-38.13702281-17.06491031-38.13702281-38.13510469C281.38435719 401.33832469 298.45982 384.26286188 319.52138094 384.26286188zM854.33477656 278.82171094l-0.31658531 452.3784075c-1.78630875 40.44521812-34.82055187 72.75227437-75.67637156 72.89233875l-537.53123344-0.30699188c-40.51908844-1.79782125-72.90289219-34.97116969-72.90289219-75.93731437l0-40.51908844-0.31466625 0 0.25998375-605.40713437 0.0546825 0 0-40.51908844c0-42.12024281 34.15188469-76.27020844 76.27308656-76.27020844l38.13510469 0 0-0.21489469 112.58254875 0.20434125c21.06156 0 38.13702281 17.07546281 38.13702282 38.13510469 0 21.06156-17.07546281 38.13702281-38.13702282 38.13702281l-98.22492375-0.17748c-36.70183594 3.54671531-50.1653475 15.94822687-52.54837218 54.50352657l-0.26094282 584.31775218 0.22352813-30.21087656c-0.91138219 64.99593281 14.00362594 76.76523281 75.19189969 77.62960688l-8.82601594 0.09305718 393.18174281 0.22352813c56.77718531-1.34021156 73.385445-11.86139813 74.1701925-65.78835563l0-3.51025968c0-2.81185312 0-5.62370719-0.0767475-8.66772375l0.0767475 3.82588593 0.24079688-344.96387437-150.12285657-0.20434125 0-0.110325-40.51908843 0c-42.12024281 0-76.27020844-34.14229125-76.27020844-76.27308656l0-38.13510469-0.26094281 0 0.24175593-183.28757063c-2.45785313-12.1233 0.96894281-25.19443781 10.37152782-34.59702281 3.77983687-3.77887781 8.17653656-6.58305656 12.8313-8.44323562 4.59912187-1.95707344 9.64434094-3.04689375 14.93227593-3.04689375 13.31577188 0 24.99009656 6.83440594 31.80435657 17.16084468l254.69963343 255.34047938c2.82912187 1.71243937 5.47404844 3.68678062 7.78416188 6.05925187 7.2229425 6.9360975 11.74915406 16.63991813 11.74915406 27.44890969C855.2854925 273.42153186999997 854.9314925 276.15759749999995 854.33477656 278.82171094zM587.27200531 95.96296874999996l-0.07387031 63.52620937c0.52188656 58.04064844 13.96525125 72.62084344 77.38977 72.62084344l-76.94175375-0.51133312-0.46624406-68.64721688-0.09305719 69.18733125 136.19502 0.18515438L587.27200531 95.96296874999996z"  horiz-adv-x="1024" />

    
    <glyph glyph-name="book" unicode="&#59004;" d="M812.26230005 19.669274040000005H242.90017908a38.47497446 38.47497446 0 0 0-38.64372365 38.36247474c0 21.14998627 17.32498819 38.30622446 38.64372365 38.30622446h405.33722973V805.875H204.25645545C172.30647659 805.875 146.37524335 780.11251758 146.37524335 748.33128873v-690.29953995A96.18743573 96.18743573 0 0 1 242.90017908-37.87443723000001h569.36212097a28.85623105 28.85623105 0 0 1 28.96873077 28.7437305 28.85623105 28.85623105 0 0 1-28.96873077 28.79998077zM777.38732339 805.875H692.33737942v-694.85578665h85.04994397c35.2687261 0 63.84370743 25.25623325 63.84370744 56.3624621V749.56878735C841.23103082 780.61876675 812.65604951 805.875 777.38732339 805.875z"  horiz-adv-x="1024" />

    
    <glyph glyph-name="upload-simple" unicode="&#59005;" d="M813.378125 548.034375C785.95625 688.546875 662.58125 794.784375 511.784375 794.784375c-150.7875 0-274.1625-106.2375-301.584375-246.75C107.39375 520.6125 32 424.659375 32 314.990625c0-133.659375 106.2375-239.90625 239.896875-239.90625h34.275v68.55h-34.275c-95.953125 0-171.35625 75.39375-171.35625 171.35625 0 95.953125 75.39375 171.35625 171.35625 171.35625 0 133.659375 106.2375 239.896875 239.896875 239.896875s239.90625-106.2375 239.90625-239.896875c95.953125 0 171.35625-75.39375 171.35625-171.35625s-75.39375-171.35625-171.35625-171.35625h-34.275v-68.55h34.275c133.659375 0 239.896875 106.246875 239.896875 239.90625-0.009375 109.66875-75.4125 205.621875-178.21875 233.04375z m0 0M542.6375 407.521875c-13.715625 10.284375-27.4125 13.715625-41.128125 6.853125-3.421875 0-6.853125-3.421875-10.284375-6.853125L388.409375 308.13750000000005c-13.70625-13.715625-13.70625-34.275 0-47.98125 13.715625-13.715625 37.696875-13.715625 51.4125 0l41.11875 37.696875v-291.309375c0-20.559375 17.1375-34.265625 34.275-34.265625 20.559375 0 34.265625 17.128125 34.265625 34.265625V297.86249999999995l41.128125-37.696875c13.70625-13.715625 37.696875-13.715625 51.403125 0 13.715625 13.70625 13.715625 34.265625 0 47.98125l-99.375 99.375z m0 0"  horiz-adv-x="1024" />

    
    <glyph glyph-name="youjian" unicode="&#58998;" d="M904.533333 27.306667H119.466667c-18.773333 0-34.133333 15.36-34.133334 34.133333v546.133333c0 6.826667 8.533333 11.946667 15.36 8.533334l407.893334-226.986667c3.413333-1.706667 6.826667-1.706667 10.24 0l404.48 226.986667c6.826667 3.413333 15.36-1.706667 15.36-8.533334v-546.133333c-1.706667-18.773333-15.36-34.133333-34.133334-34.133333zM894.293333 319.146667h-768c-13.653333 0-25.6 11.946667-25.6 25.6v375.466666c0 13.653333 11.946667 25.6 25.6 25.6h768c13.653333 0 25.6-11.946667 25.6-25.6v-375.466666c0-13.653333-10.24-25.6-25.6-25.6z"  horiz-adv-x="1024" />

    
    <glyph glyph-name="xinfeng-kai-shi" unicode="&#59000;" d="M936.92416 481.9456c-0.01024 0.74752-0.06144 1.49504-0.10752 2.24256-0.04608 0.61952-0.08704 1.24416-0.1536 1.85344a38.7584 38.7584 0 0 1-0.31232 2.02752c-0.10752 0.66048-0.20992 1.32608-0.35328 1.97632-0.13312 0.62976-0.31744 1.24416-0.48128 1.86368-0.17408 0.6656-0.34304 1.33632-0.55296 1.98656-0.2048 0.62976-0.45056 1.24416-0.68608 1.8688-0.2304 0.60416-0.45056 1.21856-0.70656 1.81248-0.29184 0.66048-0.61952 1.3056-0.94208 1.95584-0.26624 0.53248-0.52224 1.06496-0.80384 1.58208-0.36352 0.65536-0.768 1.29024-1.17248 1.93024-0.3072 0.4864-0.60416 0.97792-0.93184 1.45408-0.4096 0.59392-0.86016 1.17248-1.31072 1.75104-0.37888 0.49664-0.75264 0.98816-1.15712 1.46432-0.4352 0.512-0.90112 1.00352-1.36704 1.50016a39.64416 39.64416 0 0 1-1.44384 1.48992c-0.16896 0.16896-0.32256 0.35328-0.50176 0.52224L614.8096 799.75424c-28.27776 26.38848-65.39776 39.61344-102.54336 39.67488L512 839.68l-0.26624-0.25088c-37.1456-0.06144-74.2656-13.2864-102.54336-39.67488L100.04992 511.22688c-0.1792-0.16384-0.32768-0.34816-0.50688-0.52224a39.51104 39.51104 0 0 1-1.43872-1.48992c-0.46592-0.49664-0.93184-0.98816-1.36704-1.50016-0.40448-0.47616-0.77312-0.96768-1.15712-1.46432-0.45056-0.57856-0.90112-1.15712-1.31072-1.75104-0.32256-0.47616-0.62464-0.96768-0.93184-1.45408-0.39936-0.64-0.80896-1.27488-1.17248-1.93024-0.29184-0.51712-0.5376-1.05472-0.80384-1.59232-0.32256-0.64512-0.65024-1.28512-0.93696-1.94048-0.26112-0.59904-0.48128-1.21344-0.7168-1.82784-0.2304-0.61952-0.47616-1.2288-0.68096-1.85856-0.20992-0.65024-0.37888-1.32096-0.55296-1.98656-0.16896-0.61952-0.34304-1.23392-0.48128-1.86368-0.14336-0.65024-0.24576-1.31584-0.35328-1.97632-0.11264-0.67584-0.2304-1.34656-0.31232-2.02752-0.07168-0.60928-0.10752-1.23392-0.1536-1.85344-0.0512-0.74752-0.1024-1.49504-0.10752-2.24256 0.00512-0.22528-0.0256-0.44032-0.0256-0.6656v-512a40.96 40.96 0 0 1 40.96-40.96h768a40.96 40.96 0 0 1 40.96 40.96V481.28c0 0.22528-0.03072 0.44032-0.03584 0.6656z m-59.65824-488.02816a40.88832 40.88832 0 0 0-32.49664-15.98464 40.76544 40.76544 0 0 0-24.94464 8.49408L512 223.22176 204.17536-13.568a40.96 40.96 0 0 0-49.95072 64.93184l204.17024 157.056-206.89408 189.9008a40.96512 40.96512 0 0 0 55.40352 60.34944l217.41056-199.55712 62.67392 48.21504a41.09312 41.09312 0 0 0 49.62816 0.3072l63.07328-48.51712 217.41568 199.552a40.96 40.96 0 0 0 57.87136-2.47808 40.96 40.96 0 0 0-2.47808-57.87136L665.6 208.41984l204.18048-157.06112a40.96 40.96 0 0 0 7.48544-57.44128z"  horiz-adv-x="1024" />

    
    <glyph glyph-name="b-download" unicode="&#59263;" d="M895.5 64.29999999999995H128c-35.1 0-63.8-28.7-63.8-63.8 0-35.1 28.7-63.8 63.8-63.8h767.5c35.1 0 63.8 28.7 63.8 63.8 0 35.1-28.7 63.8-63.8 63.8zM811 513H672.2V772.2c0 33.3-27 60.4-60.4 60.4H412.4c-33.3 0-60.4-27-60.4-60.4V513H213.2c-26.7 0-40.7-31.8-22.5-51.5L489.6 138c12.1-13.1 32.9-13.1 45.1 0l298.8 323.5c18.1 19.7 4.2 51.5-22.5 51.5z"  horiz-adv-x="1024" />

    
    <glyph glyph-name="open-email" unicode="&#58997;" d="M382.6 305.79999999999995L140.1 494.5c-5.9 4.6-14.5 0.4-14.5-7.1v-388.6c0-15.8 3.9-30.7 10.7-43.8 2.8-5.5 10.2-6.6 14.5-2.2l232.8 239.7c3.6 3.8 3.2 10.1-1 13.3zM142.4 548.9l360.9-270.3a9 9 0 0 1 10.8 0L875 548.9c5.2 3.9 4.7 11.9-1 15.1L513 766.6c-2.7 1.5-6.1 1.5-8.8 0L143.3 564c-5.6-3.2-6.1-11.2-0.9-15.1z m449.5-282.3c-3.1 3.2-8 3.7-11.6 1.2L513.7 222c-3.1-2.1-7.1-2.1-10.2 0l-66.6 45.8c-3.6 2.5-8.5 2-11.6-1.2L190.6 21.899999999999977c-4.6-4.8-2.6-12.9 3.9-14.8 8.5-2.6 17.5-4 26.9-4H796c9.4 0 18.4 1.4 26.9 4 6.4 1.9 8.5 10 3.9 14.8L591.9 266.6z m285.4 220.8L634.9 305.79999999999995c-4.3-3.3-4.8-9.6-1.1-13.5l232.7-239.5c4.3-4.4 11.6-3.3 14.5 2.2 6.8 13.1 10.7 28 10.7 43.8V480.2c0 7.4-8.5 11.6-14.4 7.2z"  horiz-adv-x="1024" />

    
    <glyph glyph-name="full" unicode="&#58995;" d="M989.964636 297.69904599999995C963.860122 297.69904599999995 942.697149 276.53095399999995 942.697149 250.42643999999996L942.697149 33.63923999999997 653.321795 323.01357099999996C634.857272 341.47502099999997 604.923551 341.47502099999997 586.465172 323.01357099999996 568.003722 304.55519200000003 568.003722 274.62146600000005 586.465172 256.15694800000006L875.840527-33.21840599999996 659.053327-33.21840599999996C632.948813-33.21840599999996 611.780721-54.38137900000004 611.780721-80.48589300000003 611.780721-106.59859500000005 632.948813-127.76156700000001 659.053327-127.76156700000001L989.964636-127.76156700000001C1016.077338-127.76156700000001 1037.240315-106.59859500000005 1037.240315-80.48589300000003L1037.240315 250.42541600000004C1037.241334 276.52993000000004 1016.078362 297.69904599999995 989.964636 297.69904599999995L989.964636 297.69904599999995ZM172.361198 802.930394L385.757166 802.930394C411.458499 802.930394 432.291969 823.763864 432.291969 849.465197 432.291969 875.16653 411.458499 896 385.757166 896L60.014568 896C34.313235 896 13.479765 875.16653 13.479765 849.465197L13.479765 523.723624C13.479765 498.022291 34.313235 477.188821 60.014568 477.188821 85.715901 477.188821 106.549371 498.022291 106.549371 523.723624L106.549371 737.118568 391.400693 452.267247C409.572547 434.092324 439.039643 434.092324 457.212519 452.267247 475.387442 470.4391 475.387442 499.906196 457.212519 518.079073L172.361198 802.930394 172.361198 802.930394Z"  horiz-adv-x="1076" />

    
    <glyph glyph-name="shrink" unicode="&#58996;" d="M0.000698 852.83013c0-11.39108 4.416949-22.22423 12.553436-30.360716L327.970822 507.075973H46.727374a44.587943 44.587943 0 1 1 0-89.199133h385.088255c1.278591-0.139483 2.557181-0.278965 3.69629-0.278965 5.416575 0 10.11249 1.557556 14.389956 2.975629a58.81517 58.81517 0 0 1 5.997753 2.417699c0.697413 0.278965 1.697038 0.55793 2.859393 0.860143a16.272972 16.272972 0 0 1 8.833899 4.416949 14.436451 14.436451 0 0 1 3.277842 6.718413c0.139483 0.418448 0.278965 1.139108 0.441695 1.418073 3.975255 5.556058 6.671918 11.972258 7.834273 19.085871v0.418448c0.139483 0.139483 0.139483 0.139483 0.139483 0.302213 0.139483 0.55793 0.441695 1.557556 0.441695 2.696663v0.139483a9.182606 9.182606 0 0 1 0.55793 3.277842V851.412057a44.680931 44.680931 0 0 1-89.315368 0v-285.939362L73.229071 883.167599A42.774669 42.774669 0 0 1 42.868355 895.697788 42.68168 42.68168 0 0 1 0.000698 852.83013zM547.516459 308.80143499999997c-0.139483-0.72066-0.55793-1.859768-0.441695-3.277842v-388.924027a44.564696 44.564696 0 1 1 89.175886 0v285.939363l317.718152-317.718152c8.113239-8.113239 18.806906-12.553435 30.337468-12.553435 11.39108 0 22.22423 4.416949 30.360716 12.553435a42.84441 42.84441 0 0 1 0 60.698185L699.250298 260.93565h281.38293a44.541449 44.541449 0 0 1 44.587943 44.587943 44.541449 44.541449 0 0 1-44.587943 44.587943H595.382244c-6.997378 0.860143-12.971883-1.139108-18.109493-2.859393-1.976004-0.72066-3.975255-1.418073-5.974506-2.417699a20.643427 20.643427 0 0 0-2.859393-0.860143 16.086995 16.086995 0 0 1-8.833899-4.416949 14.366709 14.366709 0 0 1-3.277842-6.695166c-0.139483-0.441695-0.278965-1.139108-0.441695-1.44132a44.750673 44.750673 0 0 1-7.834273-19.062625v-0.441694c-0.139483-0.139483-0.139483-0.139483-0.139483-0.278966-0.139483-0.55793-0.418448-1.557556-0.418448-2.696664v-0.139482h0.023247z"  horiz-adv-x="1028" />

    
    <glyph glyph-name="document" unicode="&#58993;" d="M815.104 826.3679999999999q27.648-25.6 44.032-42.496t25.088-28.672 10.752-19.968 2.048-14.336l0-16.384-151.552 0q-10.24 0-17.92 7.68t-12.8 17.92-7.68 20.992-2.56 16.896l0 126.976 3.072 0q8.192 0 16.896-2.56t19.968-9.728 28.16-20.48 42.496-35.84zM640 766.976q0-20.48 6.144-42.496t19.456-40.96 33.792-31.232 48.128-12.288l149.504 0 0-577.536q0-29.696-11.776-53.248t-31.232-39.936-43.008-25.6-46.08-9.216l-503.808 0q-19.456 0-42.496 11.264t-43.008 29.696-33.28 41.984-13.312 49.152l0 696.32q0 21.504 9.728 44.544t26.624 42.496 38.4 32.256 45.056 12.8l391.168 0 0-128zM704.512 128q26.624 0 45.056 18.944t18.432 45.568-18.432 45.056-45.056 18.432l-384 0q-26.624 0-45.056-18.432t-18.432-45.056 18.432-45.568 45.056-18.944l384 0zM768 447.488q0 26.624-18.432 45.568t-45.056 18.944l-384 0q-26.624 0-45.056-18.944t-18.432-45.568 18.432-45.056 45.056-18.432l384 0q26.624 0 45.056 18.432t18.432 45.056z"  horiz-adv-x="1024" />

    
    <glyph glyph-name="inbox" unicode="&#58990;" d="M1148.32 525.232s-183.012-128.863-420.964-297.134c-77.52-46.958-147.345 3.955-147.345 3.955l-409.171 293.18c-7.192 0-13.015-5.825-13.015-13.015v-430.096c0-50.337 40.845-91.254 91.254-91.254h821.003c50.337 0 91.254 40.845 91.254 91.254v430.025c0 7.192-5.825 13.088-13.015 13.088zM592.093 301.15999999999997c48.18-30.059 62.85-25.096 64.432-24.449 3.595-1.007 19.776-2.733 63.712 24.665 116.639 72.63 395.58 256.72 425.638 336.038 0 0 48.324 145.978-97.582 139.075l-783.896-0.072c-145.763 6.832-97.438-139.147-97.438-139.147 29.987-79.389 308.639-263.336 425.135-336.11z"  horiz-adv-x="1303" />

    
    <glyph glyph-name="recycle-bin" unicode="&#58991;" d="M857.429333 768H681.472V819.541333c0 27.306667-24.234667 48.64-48.64 48.64H390.314667c-27.306667 0-48.64-21.162667-48.64-48.64V768h-175.786667c-27.306667 0-48.64-21.162667-48.64-48.64 0-27.306667 21.162667-48.64 48.64-48.64h691.541333c27.306667 0 48.64 21.162667 48.64 48.64-0.170667 24.405333-21.333333 48.64-48.64 48.64zM165.888 604.330667v-630.784c0-42.496 33.450667-75.776 72.704-75.776h545.962667c42.496 0 72.704 33.450667 72.704 75.776V604.330667H165.888z m235.349333-248.32l66.389334 110.250666c1.706667 2.901333 4.778667 3.584 7.68 2.56h95.232c1.877333 0 4.608-1.365333 5.802666-3.242666l51.541334-84.650667 15.701333 9.898667c2.56 1.365333 5.802667 1.365333 7.850667-0.682667 1.877333-1.877333 2.56-5.290667 1.365333-7.850667l-35.84-65.877333c-1.365333-2.048-3.242667-3.242667-5.290667-3.242667l-78.848-3.242666c-2.56 0-5.290667 2.048-6.485333 4.608-0.682667 2.56 0.682667 5.973333 2.56 7.168l15.701333 9.898666-22.698666 37.888-38.229334-63.317333c-0.682667-1.365333-2.56-2.56-3.925333-3.242667H477.866667c-1.365333 0-2.56 0-3.242667 0.682667l-70.997333 43.690667c-3.754667 1.536-4.266667 5.461333-2.389334 8.704z m95.914667-243.2l-120.661333 0.682666 6.314666 12.629334-8.362666-15.701334c-1.365333-1.877333-3.242667-3.242667-5.973334-3.242666-2.56 0-4.437333 1.365333-5.802666 3.242666l-50.176 82.773334c-1.365333 1.877333-1.365333 4.608 0 6.485333l46.933333 88.064-16.384 8.533333c-2.56 1.365333-3.925333 4.437333-3.242667 7.168 0.682667 2.56 3.242667 5.290667 5.973334 5.290667l74.922666 3.242667c2.56 0 4.437333-1.365333 5.802667-3.242667l41.642667-63.829333c1.365333-1.365333 1.877333-2.56 1.877333-4.608 0-3.925333-2.56-6.485333-6.485333-6.485334-1.365333 0-1.877333 0-3.242667 0.682667l-16.384 8.533333-24.405333-46.250666 78.165333-1.024-0.512-82.944z m230.741333 78.165333l-50.176-82.773333c-1.365333-2.048-3.242667-3.242667-5.973333-3.242667h-98.986667v-18.261333c0-3.242667-1.877333-5.290667-4.608-6.485334h-1.877333c-2.56 0-4.608 1.365333-5.973333 3.242667l-37.717334 65.194667c-1.365333 1.877333-1.365333 4.608 0 6.485333l37.717334 67.242667c1.365333 2.56 4.608 3.925333 7.168 3.242666 2.56-0.682667 4.437333-3.242667 4.437333-6.485333v-18.261333h46.250667L583.68 267.264c-2.048 3.242667-0.682667 7.168 2.56 8.362667l73.728 38.570666c3.242667 2.048 7.168 0.682667 8.533333-2.56l59.392-114.005333c1.194667-2.048 1.194667-4.608 0-6.656z m0 0"  horiz-adv-x="1024" />

    
    <glyph glyph-name="drafts" unicode="&#58989;" d="M968.704 677.888H55.296v92.16c0.512 14.336 6.656 27.648 17.408 37.376s25.088 14.848 39.936 14.848h798.72c14.848 0.512 29.184-4.608 39.936-14.848 10.752-9.728 16.896-23.04 17.408-37.376v-92.16zM122.368 627.2v-584.192c0-53.76 43.52-97.28 97.28-97.28H803.84c53.76 0 97.28 43.52 97.28 97.28v0.512h0.512v583.68H122.368z m584.192-194.56H317.44c-26.624 0-48.64 22.016-48.64 48.64s22.016 48.64 48.64 48.64h389.12c26.624 0 48.64-21.504 48.64-48.64s-22.016-48.64-48.64-48.64z"  horiz-adv-x="1024" />

    
    <glyph glyph-name="video" unicode="&#58999;" d="M623.3302914844444 692.1001085155556H97.74775296000001s-88.02860259555555 0-88.02860259555555-85.43952554666666v-432.37578296888887c0-85.43952554666666 88.02860259555555-85.43952554666666 88.02860259555555-85.43952554666666h525.5825385244444s88.02860259555555 0 88.02860259555555 85.43952554666666V604.0715059199999c0 88.02860259555555-88.02860259555555 88.02860259555555-88.02860259555555 88.02860259555555zM983.2119307377778 648.0858077866667c-7.767230008888888 2.5890770488888886-15.534458879999999 2.5890770488888886-20.71261184-2.5890770488888886l-173.46812928-134.63198037333333c-5.17815296-5.17815296-7.767230008888888-10.35630592-7.7672288711111115-15.534458879999999v-214.89335296000002c0-5.17815296 2.5890770488888886-12.945382968888888 7.7672288711111115-15.534460017777777l173.46812928-134.63197923555558c2.5890770488888886-2.5890770488888886 7.767230008888888-5.17815296 12.945381831111112-5.178154097777777 2.5890770488888886 0 5.17815296 0 10.356307057777778 2.5890770488888886 7.767230008888888 2.5890770488888886 10.35630592 10.35630592 10.35630592 18.123535928888888V629.9622718577778c0 7.767230008888888-5.17815296 15.534458879999999-12.945382968888888 18.123535928888888z"  horiz-adv-x="1024" />

    
    <glyph glyph-name="classify" unicode="&#58986;" d="M149.74529321 533.12972388l-0.16910044-0.25749336 350.5606655-202.40053132c3.51267019-2.03304457 7.5057387-3.10529251 11.54646279-3.10529251 4.16601202 0 8.25515957 1.12221015 11.79088972 3.23211765l347.87658571 200.84019816c11.01072275 6.3758424 14.78088707 20.52414099 8.40120084 31.53870759-2.07147604 3.58031053-5.06916029 6.53725671-8.6241058 8.52802597L524.58181651 772.46095015c-3.51267019 2.03458179-7.50189563 3.11067358-11.54492558 3.11067359-4.54802391 0-8.95077593-1.31974931-12.74169281-3.820125L152.69839633 571.0696388900001c-11.01456582-6.32588096-14.82700467-20.43805392-8.49881788-31.45646359C145.63308647 537.11510547 147.52008978 534.9168043 149.74529321 533.12972388zM512.95387831 725.85157959l300.74146788-174.40139619L511.70330579 377.09259895 210.29850491 551.11582635 512.95387831 725.85157959zM871.12789232 402.06945342l-65.22652351 37.82461985-46.10668167-26.61943163 53.90450289-31.2619981L511.70330579 207.65890217000003 210.29850491 381.67751787l54.01979806 31.18744026-46.0836225 26.6063644-65.53551554-37.83999212c-11.01456582-6.32741895-14.8285419-20.43805392-8.49881786-31.45261974 1.45810444-2.5441882 3.38584505-4.7732347 5.6610107-6.57953124l-0.14604127-0.24596414 350.424617-202.31982456c3.51267019-2.03304457 7.50343285-3.10529251 11.54492556-3.10529252 4.16601202 0 8.25515957 1.12221015 11.79088972 3.22827458l347.87658572 200.844042c11.01072275 6.37968623 14.78088707 20.52644761 8.40120083 31.53717036C877.67667822 397.11943213 874.68283705 400.07868415 871.12789232 402.06945342zM871.12789232 232.63191355000004l-64.95750095 37.67089246-46.1028386-26.61789439 53.63163648-31.10673349L511.70330579 38.22059368999999 210.29850491 212.23997800999996l53.75077548 31.03755592-46.08131664 26.60252134-65.26879881-37.68626472c-11.01456582-6.32588096-14.82700467-20.43805392-8.49881787-31.45261976 1.44273139-2.51344287 3.34357052-4.72711633 5.58799006-6.51804058l-0.15987631-0.25365027 350.50916683-202.36978601c3.51420742-2.03304457 7.50727593-3.10913635 11.5464628-3.10913636 4.16601202 0 8.25515957 1.12221015 11.79088972 3.22827459l347.87658571 200.84404201c11.01072275 6.37968623 14.78088707 20.53029067 8.40120084 31.53717034C877.68128991 227.68189227000005 874.68668089 230.64114429000006 871.12789232 232.63191355000004z"  horiz-adv-x="1024" />

    
    <glyph glyph-name="phone-radio" unicode="&#58987;" d="M718.05241043 408.1484018C719.87359645 396.18981994 730.18827627 387.64797514 741.90510832 387.64797514 743.14609351 387.64797514 744.37096168 387.72855864 745.61194688 387.92195893 758.81151391 389.95266149 767.8690923 402.29804391 765.83838973 415.48149467 733.76618108 624.36988367 546.49027086 634.18494618 544.60461832 634.26552969 531.63068483 634.9585473 520.02666957 624.4182332 519.49481898 611.07361613 518.96296838 597.72899908 529.35823173 586.47955038 542.68673252 585.94769979 544.18558451 585.88323329 691.94337642 578.0827563400001 718.05241043 408.1484018ZM772.03686741 638.72340558C607.4532534 803.19420279 457.26184138 745.4803442 450.94410015 742.93390732 438.56648376 737.95385105 432.55495886 723.8678661399999 437.53501585 711.49025047 442.53118911 699.0965171 456.58494076 693.08499292 468.97867342 698.08116617 470.23577488 698.5807835 595.63972159 746.6729791299999 737.85337338 604.5399108500001 868.84981048 473.60794027 830.39539334 340.66138414 828.73537507 335.16559355000004 824.75455273 322.41729359 831.8297788 308.84704228 844.56196177 304.85010439999996 846.96334862 304.09261954 849.413085 303.75416924 851.79835486 303.75416924 862.09691844 303.75416924 871.63799716 310.36201124 874.87745165 320.69280807999996 876.97262073 327.39734985999996 924.5168495 486.34012396 772.03686741 638.72340558ZM715.42377869 69.28859753999996C713.10297607 66.96779418999995 705.52813266 61.56870411 685.02770603 61.56870411 618.57860308 61.56870411 491.24065358 117.39691015999995 368.65712753 239.94820295 207.71588558 400.92167888 171.11488772 559.832219 197.99752284 586.69873785 215.37131177 604.08864377 251.50492555 640.25449081 285.67230329 640.25449081 304.57717746 640.25449081 322.49893396 629.3757264000001 340.43680745 607.0057641999999 392.13914186 542.58736383 369.75306267 520.4913847099999 332.6524475 483.89038686L325.75450543 477.0569113C316.45517652 467.77369939 311.53958677 455.52501676 311.53958677 441.61631512 311.52346977 419.40751995 322.25718416 379.16415079 415.08930489 286.41261356999996 507.93754262 193.61272610000003 548.16479479 182.87901172 570.35747368 182.87901172L570.37358996 182.87901172C584.23394132 182.87901172 596.46650769 187.76236820999998 605.76583661 197.02946386999997L612.58319517 203.91128966999997C632.76128777 224.36336604999997 650.19954395 242.04337203 672.24717282 242.04337203 689.33086168 242.04337203 710.70158922 231.84150896000006 735.74692206 211.72788288000004 757.08541633 194.56361048999997 767.93194749 177.54438814000002 768.88283188 159.62263162 770.80071767 124.60106927000004 733.41000244 87.24258728999996 715.42377869 69.28859753999996ZM766.03017795 249.40869888999998C731.70163319 277.00046789 701.01546047 290.39343519 672.24717282 290.39343519 629.97310108 290.39343519 602.44579861 262.47933216 578.15795063 237.85303387L570.35747368 231.22907486999998C562.92768032 231.22907486999998 532.25762385 237.65963359 449.27279963 320.61222456999997 352.42762329 417.39293366 359.93799944 442.82506705 359.93799944 442.8734173L366.6103087 449.4812593C404.82297457 487.17819159 457.16997634 538.81605876 378.14985673 637.25678685 350.81595454 671.31134782 319.694631 688.60455397 285.67230329 688.60455397 231.48799996 688.60455397 187.44109247 644.54152947 163.79791184 620.8983488399999 93.88372087 550.93580763 196.22468707 344.02977166000005 334.47363353 205.76470822 467.50077316 72.76980183 606.37827072 13.218640950000008 685.02770603 13.218640950000008 713.39307614 13.218640950000008 735.13448796 20.600084079999988 749.62339041 35.08898653999995 772.54132018 58.00691630999995 820.24671526 105.66396184999996 817.16842779 162.24965201999998 815.44394228 194.20904319 798.23132037 223.54141469 766.03017795 249.40869888999998"  horiz-adv-x="1046" />

    
    <glyph glyph-name="share" unicode="&#58988;" d="M469.4218272 257.78251839999996C371.3200992 257.78251839999996 291.52395093 337.47753066999996 291.52395093 435.57925973s79.79614827 177.79674027 177.89787627 177.79674027S647.21856747 533.57985173 647.21856747 435.57925973s-79.79614827-177.79674027-177.79674027-177.79674133z m0 309.9812352C396.40177813 567.7637536 337.03506133 508.4981728 337.03506133 435.57925973s59.36671573-132.28562987 132.38676587-132.28562986S601.70745707 362.6603456 601.70745707 435.57925973 542.34074027 567.7637536 469.4218272 567.7637536zM807.41767893 559.1672096c-55.7258272 0-101.13580267 45.40997547-101.13580266 101.13580267s45.40997547 101.13580267 101.13580266 101.13580266 101.13580267-45.40997547 101.13580267-101.13580266-45.30883947-101.13580267-101.13580267-101.13580267z m0 156.65935787c-30.64414827 0-55.6246912-24.98054293-55.6246912-55.6246912s24.98054293-55.6246912 55.6246912-55.6246912 55.6246912 24.98054293 55.6246912 55.6246912c0 30.74528427-24.87940693 55.6246912-55.6246912 55.6246912zM807.51881493-7.294420270000046c-63.00760533 0-114.28345707 51.27585173-114.28345706 114.28345707s51.27585173 114.28345707 114.28345706 114.28345707 114.28345707-51.27585173 114.28345707-114.28345707-51.27585173-114.28345707-114.28345707-114.28345707z m0 183.05580267c-37.9259264 0-68.7723456-30.84642027-68.7723456-68.7723456s30.84642027-68.7723456 68.7723456-68.7723456 68.7723456 30.84642027 68.7723456 68.7723456-30.84642027 68.7723456-68.7723456 68.7723456zM211.82893867 27.496296529999995c-60.17580267 0-109.22666667 48.949728-109.22666667 109.22666667s48.949728 109.22666667 109.22666667 109.22666667 109.22666667-48.949728 109.22666666-109.22666667-48.949728-109.22666667-109.22666666-109.22666667z m0 172.94222187c-35.09412373 0-63.7155552-28.62143253-63.71555627-63.7155552s28.62143253-63.7155552 63.71555627-63.71555627 63.7155552 28.62143253 63.7155552 63.71555627-28.52029653 63.7155552-63.7155552 63.7155552zM598.5722464 498.688c-7.38291307 0-14.5635552 3.5397536-19.01353067 10.11357973-6.97837013 10.41698773-4.14656747 24.576 6.37155627 31.5543712l143.30943147 95.26992534c10.41698773 6.97837013 24.576 4.14656747 31.55437013-6.3715552 6.97837013-10.41698773 4.14656747-24.576-6.3715552-31.55437014L611.11308693 502.43002453c-3.84316053-2.52839467-8.192-3.74202453-12.54084053-3.74202453zM268.16157973 179.30113600000004c-5.25906133 0-10.51812373 1.8204448-14.86696213 5.56246933-9.50676587 8.192-10.61925973 22.55328427-2.42725973 32.06004907l100.0233088 116.00276587c8.192 9.50676587 22.55328427 10.61925973 32.06004906 2.42725866 9.50676587-8.192 10.61925973-22.55328427 2.42725974-32.06004906L285.45580267 187.18972799999995c-4.55111147-5.1579264-10.92266667-7.88859307-17.29422294-7.888592zM742.08395093 148.35357972999998c-5.76474027 0-11.4283456 2.12385173-15.87832106 6.47269227l-160.8059264 156.76049387c-9.00108693 8.79881493-9.20335787 23.1600992-0.40454294 32.16118506 8.79881493 9.00108693 23.1600992 9.20335787 32.16118507 0.40454294l160.8059264-156.76049387c9.00108693-8.79881493 9.20335787-23.1600992 0.40454293-32.16118507-4.44997547-4.55111147-10.41698773-6.87723413-16.282864-6.8772352z"  horiz-adv-x="1024" />

    
    <glyph glyph-name="crm" unicode="&#58985;" d="M678.00064 270.336a276.66432 276.66432 0 0 0-138.24-223.52896C407.84896-29.296640000000025 239.52384 15.360000000000014 163.84 146.14527999999996c-64.512 111.38048-40.96 249.30304 48.66048 335.19616 0-10.88512 1.83296-36.7616 9.34912-64.45056a221.60384 221.60384 0 0 1-13.48608-242.176c61.0816-106.07616 197.89824-142.12096 305.152-80.20992a224.82944 224.82944 0 0 1 112.31232 179.69152 63.83616 63.83616 0 0 0-1.39264 111.616 63.83616 63.83616 0 1 0 53.52448-115.37408zM355.328 249.48735999999997A276.48 276.48 0 0 0 227.14368 483.1232c0 152.22784 122.2144 275.93728 273.63328 275.93728 128.62464 0 236.544-89.22112 265.7792-209.5616A297.23648 297.23648 0 0 1 706.56 573.11232c-34.816 78.37696-112.82432 133.12-203.15136 133.12-122.94144 0-222.32064-100.44416-222.32064-224.2048a224.72704 224.72704 0 0 1 100.1984-187.392A64.06144 64.06144 0 1 0 355.328 249.52832zM494.51008 545.7919999999999a275.85536 275.85536 0 0 0 263.80288-7.168c131.9936-76.45184 177.7152-244.38784 101.9392-375.22432-64.78848-112.05632-197.13024-160.768-316.74368-124.7744a287.05792 287.05792 0 0 1 51.01568 40.07936 222.27968 222.27968 0 0 1 218.90048 109.11744C874.496 293.94944 837.41696 430.37696 730.22464 492.2368a223.8976 223.8976 0 0 1-207.39072 9.39008 64.512 64.512 0 1 0-28.37504 44.22656z m0 0M459.37664 492.48256m-64.3072 0a64.3072 64.3072 0 1 1 128.6144 0 64.3072 64.3072 0 1 1-128.6144 0ZM418.88768 242.71871999999996m-64.3072 0a64.3072 64.3072 0 1 1 128.6144 0 64.3072 64.3072 0 1 1-128.6144 0ZM655.99488 330.21952m-64.3072 0a64.3072 64.3072 0 1 1 128.6144 0 64.3072 64.3072 0 1 1-128.6144 0Z"  horiz-adv-x="1024" />

    
    <glyph glyph-name="calendar" unicode="&#58984;" d="M343.10498047 314.78613281a39.55078125 39.55078125 0 0 0-39.55078125 39.59033203v34.01367188a39.55078125 39.55078125 0 0 0 39.55078125 39.55078125h34.01367187a39.55078125 39.55078125 0 0 0 39.55078125-39.55078125v-34.01367188a39.55078125 39.55078125 0 0 0-39.55078125-39.55078125h-34.01367187z m170.859375 113.11523438a39.55078125 39.55078125 0 0 1-39.55078125-39.55078125v-33.9741211a39.55078125 39.55078125 0 0 1 39.55078125-39.55078125h34.01367187a39.55078125 39.55078125 0 0 1 39.55078125 39.55078125v34.01367188a39.55078125 39.55078125 0 0 1-39.55078125 39.55078125h-34.01367187z m170.859375 0a39.55078125 39.55078125 0 0 1-39.55078125-39.55078125v-33.9741211a39.55078125 39.55078125 0 0 1 39.55078125-39.55078125h34.01367187a39.55078125 39.55078125 0 0 1 39.55078125 39.55078125v34.01367188a39.55078125 39.55078125 0 0 1-39.55078125 39.55078125h-34.01367187z m-341.71875-165.08496094a39.55078125 39.55078125 0 0 1-39.55078125-39.55078125v-34.01367188a39.55078125 39.55078125 0 0 1 39.55078125-39.55078125h34.01367187a39.55078125 39.55078125 0 0 1 39.55078125 39.55078125v34.01367188a39.55078125 39.55078125 0 0 1-39.55078125 39.55078125h-34.01367187z m170.859375 0a39.55078125 39.55078125 0 0 1-39.55078125-39.55078125v-34.01367188a39.55078125 39.55078125 0 0 1 39.55078125-39.55078125h34.01367187a39.55078125 39.55078125 0 0 1 39.55078125 39.55078125v34.01367188a39.55078125 39.55078125 0 0 1-39.55078125 39.55078125h-34.01367187z m170.859375 0a39.55078125 39.55078125 0 0 1-39.55078125-39.55078125v-34.01367188a39.55078125 39.55078125 0 0 1 39.55078125-39.55078125h34.01367187a39.55078125 39.55078125 0 0 1 39.55078125 39.55078125v34.01367188a39.55078125 39.55078125 0 0 1-39.55078125 39.55078125h-34.01367187zM765.66552734 621.3046875a34.88378906 34.88378906 0 0 0-34.88378906 34.88378906V744.03076172a34.88378906 34.88378906 0 0 0 69.76757813 0v-87.80273438a34.88378906 34.88378906 0 0 0-34.88378907-34.88378906zM294.33886719 779.07275391a34.88378906 34.88378906 0 0 1-34.88378907-34.88378907v-87.80273437a34.88378906 34.88378906 0 1 1 69.76757813 0V744.18896484a34.88378906 34.88378906 0 0 1-34.88378906 34.88378907z m548.37158203-121.57910157a77.12402344 77.12402344 0 0 0-77.04492188-77.04492187 77.12402344 77.12402344 0 0 0-77.04492187 77.04492187V693.28710938H371.34423828v-35.59570313a77.12402344 77.12402344 0 0 0-77.04492187-77.04492188A77.12402344 77.12402344 0 0 0 217.21484375 657.65185547v35.59570312h-4.46923828a78.94335938 78.94335938 0 0 1-79.18066406-79.1015625v-531.08789062a79.1015625 79.1015625 0 0 1 78.70605468-79.1015625h633.56396485c43.50585938 0 78.70605469 35.16064453 78.70605468 79.1015625V614.18554688c0 43.6640625-35.20019531 79.06201172-79.1015625 79.06201171h-2.76855468v-35.75390625zM210.33300781 80.76416015999996v427.1484375h637.43994141v-427.1484375H210.33300781z"  horiz-adv-x="1074" />

    
    <glyph glyph-name="source" unicode="&#59104;" d="M82.6 501.8l837.1 293.4c24.9 8.7 48.4-16.1 38.3-40.5L639.6-12.600000000000023c-10.8-26.1-48.2-24.8-57.2 2l-113.2 337c-3.3 9.7-11.2 17.1-21.1 19.8L84.8 443.5c-29.1 7.7-30.6 48.4-2.2 58.3z"  horiz-adv-x="1024" />

    
    <glyph glyph-name="info" unicode="&#58981;" d="M858.54017893 775.74107107h-632.8125A74.73214298 74.73214298 0 0 1 150.39285703 700.40625v-479.12946405A75.33482107 75.33482107 0 0 1 225.72767893 142.92857106999998h129.57589214v-108.48214215a41.28348202 41.28348202 0 0 1 42.1875-42.1875 53.63839298 53.63839298 0 0 1 30.13392893 12.05357108l138.61607107 138.61607107h289.28571488a74.73214298 74.73214298 0 0 1 75.33482107 75.3348219v482.14285703A70.51339298 70.51339298 0 0 1 858.54017893 775.74107107z m-222.99107191-445.98214214H310.10267893a39.17410702 39.17410702 0 0 0 0 78.34821405h325.44642809a39.17410702 39.17410702 0 0 0 1e-8-78.34821405z m138.6160719 180.80357107H310.10267893A37.96875 37.96875 0 0 0 270.92857107 549.73660703a39.77678595 39.77678595 0 0 0 39.17410785 39.17410702h464.0625A39.77678595 39.77678595 0 0 0 813.33928595 549.73660703a37.96875 37.96875 0 0 0-39.17410702-39.17410703z"  horiz-adv-x="1097" />

    
    <glyph glyph-name="active-employee" unicode="&#59217;" d="M554.666667 296.021333V-42.66666699999996H170.666667a341.333333 341.333333 0 0 0 384 338.688zM512 341.33333300000004c-141.44 0-256 114.56-256 256s114.56 256 256 256 256-114.56 256-256-114.56-256-256-256z m247.168-294.997333l150.826667 150.826667 60.373333-60.330667-211.2-211.2-150.869333 150.869333 60.373333 60.330667 90.453333-90.496z"  horiz-adv-x="1024" />

    
    <glyph glyph-name="location" unicode="&#58980;" d="M512 779.5078125C332.11346817 779.5078125 186.28772926 632.84393692 186.28772926 451.84117699c0-90.45464516 36.47941589-172.34793663 95.38690568-231.67410851L512-11.5078125l230.32459258 231.67488098a327.62028694 327.62028694 0 0 1 95.38767816 231.67410851C837.71227074 632.84393692 691.88575935 779.5078125 512 779.5078125z m0-473.21351051a145.17454147 145.17454147 0 0 0-144.80298042 145.64034462A145.1281929 145.1281929 0 0 0 512 597.4815216100001a145.17454147 145.17454147 0 0 0 144.80220795-145.64034462A145.1281929 145.1281929 0 0 0 512 306.24795341000004z"  horiz-adv-x="1024" />

    
    <glyph glyph-name="position" unicode="&#59086;" d="M512 534.00000029c-82.87499971 0-150.00000029-67.12499971-150.00000029-150.00000029s67.12499971-150.00000029 150.00000029-150.00000029 150.00000029 67.12499971 150.00000029 150.00000029-67.12499971 150.00000029-150.00000029 150.00000029z m335.25-112.5C829.99999971 577.87500029 705.87500029 701.99999971 549.50000029 719.25V796.49999971h-75.00000058v-77.24999971C318.12499971 701.99999971 194.00000029 577.87500029 176.75 421.50000029H99.50000029v-75.00000058h77.24999971c17.25000029-156.375 141.37499971-280.50000029 297.74999971-297.74999971V-28.499999709999997h75.00000058v77.24999971c156.375 17.25000029 280.50000029 141.37499971 297.74999971 297.74999971H924.49999971v75.00000058h-77.24999971zM512 121.49999971c-144.93750029 0-262.50000029 117.5625-262.50000029 262.50000029s117.5625 262.50000029 262.50000029 262.50000029 262.50000029-117.5625 262.50000029-262.50000029-117.5625-262.50000029-262.50000029-262.50000029z"  horiz-adv-x="1024" />

    
    <glyph glyph-name="sousuo" unicode="&#58970;" d="M944.62793369-48.57021942999995a57.65679141 57.65679141 0 0 0-81.60831035 0l-156.06002373 156.00230859C639.54905732 56.989611620000005 556.72874141 25.99692158000005 466.00153877 25.99692158000005a404.00153877 404.00153877 0 1 0 404.00153965 404.00153965c0-90.66948838-30.9349749-173.48980342-81.43516758-240.95806084l156.06002285-156.00230859a57.71450566 57.71450566 0 0 0 0-81.60831123zM466.00153877 718.57098867a288.57252833 288.57252833 0 1 1 0.05771514-577.20277002A288.57252833 288.57252833 0 0 1 466.00153877 718.57098867z"  horiz-adv-x="1024" />

    
    <glyph glyph-name="subordinate" unicode="&#58974;" d="M731.375 237.75h208.125c12.65625001 0 22.5-9.84375001 22.5-22.5v-202.5c0-12.65625001-9.84375001-22.5-22.5-22.5H731.375c-12.65625001 0-22.5 9.84375001-22.5 22.5V215.25c0 12.65625001 9.84375001 22.5 22.5 22.5z m-320.625 0h208.125c12.65625001 0 22.5-9.84375001 22.5-22.5v-202.5c0-12.65625001-9.84375001-22.5-22.5-22.5H410.75c-12.65625001 0-22.5 9.84375001-22.5 22.5V215.25c0 12.65625001 9.84375001 22.5 22.5 22.5z m-326.25 0h208.125c12.65625001 0 22.5-9.84375001 22.5-22.5v-202.5c0-12.65625001-9.84375001-22.5-22.5-22.5H84.5C71.84374999-9.75 62 0.09374998999999207 62 12.75V215.25c0 12.65625001 9.84375001 22.5 22.5 22.5z m728.4375 59.0625v49.21875001H542.9375v-49.21875001c0-7.03125001-5.625-14.0625-14.0625-14.0625h-29.53125001c-7.03125001 0-14.0625 5.625-14.06249998 14.0625v49.21875001H216.6875v-49.21875001c0-7.03125001-5.625-14.0625-14.0625-14.0625H174.5c-7.03125001 0-14.0625 5.625-14.0625 14.0625v97.03125001c0 8.4375 7.03125001 14.0625 14.0625 14.06249998h312.1875v135.00000002H343.25c-12.65625001 0-22.5 9.84375001-22.5 22.5V774.9375c0 12.65625001 9.84375001 22.5 22.5 22.5h337.5c12.65625001 0 22.5-9.84375001 22.5-22.5V566.8125c0-12.65625001-9.84375001-22.5-22.5-22.5h-136.40625001v-135h312.18750002c8.4375 0 14.0625-7.03125001 14.06249998-14.0625v-97.03125001c0-7.03125001-5.625-14.0625-14.0625-14.06249998h-29.53124999c-8.4375-1.40625001-14.0625 5.625-14.0625 12.65624999z m0-14.0625"  horiz-adv-x="1024" />

    
    <glyph glyph-name="nearby" unicode="&#58977;" d="M287.6046875 384H172.5558591c-9.52734402 0-18.52734348-7.75195313-20.0742182-17.33203152L90.36054715-20.542968480000013c-1.5644534-9.65039063 4.9746091-17.33203152 14.57226535-17.33203152h814.16601563c9.4921875 0 16.10156223 7.75195313 14.5546875 17.33203152l-62.1035159 387.21093696A21.04101563 21.04101563 0 0 1 851.45820285 384h-115.06640625C646.21601535 257.47265652 512.00703098 141.75585909999995 512.00703098 141.75585909999995S377.7980466 257.47265652 287.6046875 384zM512.00703098 225.796875S283.49140625 434.27343723 283.49140625 566.4609375C283.49140625 698.71875 385.79609375 805.875 512.00703098 805.875s228.51562473-107.17382785 228.51562554-239.4140625C740.52265652 434.27343723 512.00703098 225.796875 512.00703098 225.796875z m0 204.7324216c72.12304715 0 130.58789035 61.10156277 130.58789117 136.49414117 0 75.37499973-58.46484402 136.4765625-130.58789117 136.4765625s-130.58789035-61.10156277-130.58789035-136.4765625c0-75.3925784 58.46484402-136.49414035 130.58789035-136.49414117zM441.69453125 568.5703125a70.31249973 70.31249973 0 1 1 140.62500027 0 70.31249973 70.31249973 0 0 1-140.62500027 0z"  horiz-adv-x="1024" />

    
    <glyph glyph-name="mp" unicode="&#58969;" d="M512 816C273.44 816 80 622.56 80 384S273.44-48 512-48 944 145.44000000000005 944 384c0 239.52-193.44 432-432 432z m143.52-464.16c-19.2-3.36-35.52 0-44.16 18.24-7.68 17.28 3.36 29.28 15.36 39.84 6.24 5.28 12.96 8.64 19.68 12 28.32 16.32 52.8 37.92 37.92 74.4-12.96 33.6-44.16 42.24-76.8 37.92-37.92-5.28-58.56-27.84-58.56-66.72 0-59.52 1.92-120-0.96-179.52-3.36-67.2-75.36-127.2-144.48-124.32-74.4 2.4-133.92 62.88-132.96 152.16 1.92 41.28 38.88 75.36 89.76 97.44 21.6 9.6 42.24 9.6 54.24-14.88 13.92-28.32-9.6-37.92-28.32-46.56-37.92-16.32-57.12-43.2-38.88-82.08 17.28-36.48 52.8-44.16 89.76-31.2 31.2 10.56 43.2 35.52 42.24 68.16a4570.1203125 4570.1203125 0 0 0 0 162.24c0.96 64.8 31.2 106.08 90.72 127.68 54.24 19.2 121.92 1.92 158.88-41.28 56.16-67.68 13.92-185.28-73.44-203.52z m0 0"  horiz-adv-x="1024" />

    
    <glyph glyph-name="airplane" unicode="&#58968;" d="M917.22247315 800.85699463c-15.32098388 7.63824463-25.97909546 5.6401062-38.2802124 0L113.08422852 419.88162232C99.62872315 412.19888305 90.125 401.94039917 90.125 389.37231445c0-12.52276612 5.6401062-24.73571778 15.32098388-30.50765991l183.84851075-114.35119629c15.27648926-7.59292602 30.6411438-7.59292602 45.96130371 7.63824463L736.61547852 613.8122863799999a6.92797852 6.92797852 0 0 0 9.10327148 0.13183594 5.77276612 5.77276612 0 0 0 0.48861695-8.3921814L388.8125 221.86651612000003c-7.59375-7.63824463-7.59375-15.27648926-7.59375-22.9147339v-167.6401062c0-15.27648926 7.59375-30.50848388 22.91473388-38.19122314 15.36465454-7.54925537 30.6411438 0 38.27938844 7.68273926l91.92425536 91.48013305 183.84851075-121.89880371c9.68170166-7.63824463 31.66287232-9.37023926 38.2802124-7.63824463 6.61651612 1.73117065 19.9385376 15.09851075 22.91473389 30.50765992l153.20654296 761.95074463c3.64196778 16.78601074 0 38.01324463-15.36547851 45.65148925z"  horiz-adv-x="1024" />

    
    <glyph glyph-name="expression" unicode="&#59421;" d="M512 839.72C260.74 839.72 56.28 635.26 56.28 384S260.74-71.72000000000003 512-71.72000000000003 967.72 132.74 967.72 384 763.26 839.72 512 839.72z m0-825.85c-204.07 0-370.13 166.06-370.13 370.13S307.93 754.13 512 754.13 882.13 588.0699999999999 882.13 384 716.07 13.870000000000005 512 13.870000000000005zM708.32 305a43.6 43.6 0 0 1-60.63-9.46C606.36 238.69000000000005 562 211 512 211s-94.38 27.67-135.74 84.66a43.52 43.52 0 0 1-70.41-51.16l0.36-0.48C364.17 164.37 433.4 124 512 124s148.08 40.55 206.14 120.55a43.53 43.53 0 0 1-9.82 60.45zM346.27 430.61a62.14 62.14 0 1 1-62.14 62.14 62.14 62.14 0 0 1 62.15-62.18zM688.08 554.86a62.12 62.12 0 1 1 0-124.25 62.14 62.14 0 0 1 0 124.29z"  horiz-adv-x="1024" />

    
    <glyph glyph-name="performance" unicode="&#59103;" d="M128.025585 372.3334c-11.564261 0-22.923846 5.730961-29.575855 16.271837-10.336198 16.271837-5.423946 37.865281 10.95023 48.09914l258.404957 162.923047c15.043774 9.51749 34.795123 6.140316 45.95003-7.777734L504.529282 477.742155l243.6682 167.73296c15.862483 10.847891 37.660604 6.959025 48.508494-9.005797s6.959025-37.660604-9.005796-48.508494L517.321607 401.806916c-15.043774-10.438537-35.71617-7.368379-47.075755 7.061363L378.652808 523.9992 146.651209 377.757346c-5.8333-3.684189-12.280632-5.423946-18.625624-5.423946zM907.641015-0.07675400000005084H546.897462V139.61543099999994h349.076953c19.239656 0 34.897462 15.657805 34.897462 34.897461V779.641015c0 19.239656-15.657805 34.897462-34.897462 34.897462H128.025585c-19.239656 0-34.897462-15.657805-34.897462-34.897462v-186.153907c0-19.239656 15.657805-34.897462 34.897462-34.897462s34.897462 15.657805 34.897461 34.897462V744.743554h698.256246v-535.3332H162.923046v44.312612c0 19.239656-15.657805 34.897462-34.897461 34.897462S93.128123 272.962622 93.128123 253.72296600000004V174.51289199999997c0-19.239656 15.657805-34.897462 34.897462-34.897461h349.076953v-139.692185H116.358985c-19.239656 0-34.897462-15.657805-34.897462-34.897461s15.657805-34.897462 34.897462-34.897462h791.28203c19.239656 0 34.897462 15.657805 34.897462 34.897462s-15.555467 34.897462-34.897462 34.897461z"  horiz-adv-x="1024" />

    
    <glyph glyph-name="clock" unicode="&#58954;" d="M923.06584708 546.16095498C878.89949229 650.42816191 796.26261992 734.0300794899999 693.17721143 778.72527656c27.88829209 22.22303291 62.99688779 35.54480039 101.21827412 35.54480039 90.44717695 0 163.80953701-74.20149141 163.80953701-165.70725029C958.20502256 609.84137959 945.0082707 574.3595361299999 923.06584708 546.16095498zM916.37348487 362.83554990000005c0-108.68770987-42.17510566-207.16734023-110.52516358-280.43526445l56.58513486-57.20661387c7.47033487-7.59445137 12.10759102-18.05256036 12.10759102-29.62951084 0-23.09634052-18.52024307-41.83333682-41.36475498-41.83333681-11.42225596 0-21.7553502 4.66873418-29.25626397 12.26408466l-60.75650742 61.44004336c-65.5484581-46.31319932-145.13549854-73.70322891-231.1639708-73.7032289-85.87287862 0-165.30342451 27.26501396-230.7898248 73.45409853l-60.31940362-61.06499824c-7.59445137-7.6574083-18.05166123-12.38820117-29.59983105-12.38820117-23.09454229 0-41.8324377 18.98612754-41.8324377 42.32890107 0 11.70376523 4.70111221 22.28598984 12.23260664 29.94249903l56.11835215 56.7722083c-68.13330557 73.20496729-110.18249648 171.55958291-110.18249649 280.06111845 0 225.96639521 181.0535458 409.10382773 404.37303487 409.10382773C735.32083818 771.93937675 916.37348487 588.80194424 916.37348487 362.83554990000005zM511.99955 687.3427333c-177.13040537 0-320.70995859-145.29019307-320.70995859-324.5080834 0-179.1540334 143.57955323-324.44422646 320.70995859-324.44422646 177.13220449 0 320.71085771 145.29019307 320.71085771 324.44422646C832.71040859 542.05254023 689.13175449 687.3427333 511.99955 687.3427333zM679.32660254 320.50574883L511.99955 320.50574883c-23.12512119 0-41.83153857 18.98522842-41.83153857 42.32890107L470.1680123 588.55191387c0 23.40663047 18.70641739 42.32980019 41.83153858 42.32980019 23.12692031 0 41.83333682-18.92316972 41.83333681-42.3298002l0-183.38656376L679.32660254 405.1653501c23.12602031 0 41.83333682-18.92496885 41.83333681-42.3298002C721.15904023 339.49187636 702.45262285 320.50574883 679.32660254 320.50574883zM101.6815458 540.4336379900001c-22.41010635 28.82095927-35.88746836 65.0510956-35.88746836 104.57839599 0 93.498808 74.91740625 169.25624385 167.32705254 169.25624385 39.06231592 0 74.88682646-13.63205742 103.36601778-36.29129414C231.19103867 732.34911943 146.81294668 646.94212529 101.6815458 540.4336379900001z"  horiz-adv-x="1024" />

    
    <glyph glyph-name="invalid" unicode="&#58964;" d="M512-64.64999999999998c-248.175 0-450 201.375-450 449.1S263.825 833.325 512 833.325s450-201.375 450-449.1-201.825-448.875-450-448.875z m0 793.125c-190.35 0-344.925-154.35-344.925-344.025S321.875 40.424999999999955 512 40.424999999999955s344.925 154.35 344.925 344.025S702.35 728.475 512 728.475zM199.637 146.96699999999998l550.7775 549.225 74.19375-74.4075-550.7775-549.2205z"  horiz-adv-x="1025" />

    
    <glyph glyph-name="man" unicode="&#58973;" d="M960 576a64 64 0 0 0-64 64v41.152l-146.56-146.56A414.912 414.912 0 1 0 416 704a412.416 412.416 0 0 0 246.528-82.56L809.088 768H768a64 64 0 0 0 0 128h192a64 64 0 0 0 64-64v-192a64 64 0 0 0-64-64zM128 288A288 288 0 1 1 416 576 288 288 0 0 1 128 288z"  horiz-adv-x="1024" />

    
    <glyph glyph-name="woman" unicode="&#58961;" d="M624.452792 165.890308c-156.17731 0-283.375908 127.198598-283.375907 283.375908S468.275482 732.642124 624.452792 732.642124 907.8287 605.443526 907.8287 449.266216s-127.198598-283.375908-283.375908-283.375908zM220.033058 449.266216c0-79.755572 23.080391-154.12572 63.086401-216.699224l-63.855748-63.855747-58.213874 58.213874c-23.593288 23.593288-62.060606 23.593288-85.653894 0l0.256449 0.256449c-23.593288-23.593288-23.593288-62.060606 0-85.653895l58.213874-58.213874-67.958928-67.958928c-23.593288-23.593288-23.593288-62.060606 0-85.653894l-0.256449 0.256448c23.593288-23.593288 62.060606-23.593288 85.653894 0l67.958928 67.958929 52.572001-52.82845c23.593288-23.593288 62.060606-23.593288 85.653895 0l-0.256449-0.256449c23.593288 23.593288 23.593288 62.060606 0 85.653894L304.661157 83.05735000000004l58.213874 58.213875c70.523416-60.009016 161.819184-96.168295 261.321313-96.168295 222.853994 0 404.163286 181.309291 404.163285 404.163286 0 222.853994-181.309291 404.163286-404.163285 404.163286S220.033058 672.376659 220.033058 449.266216z m0 0"  horiz-adv-x="1070" />

    
    <glyph glyph-name="download" unicode="&#58992;" d="M467.968 289.28V759.296c0 25.088 19.456 45.568 43.008 45.568 24.064 0 43.008-20.48 43.008-45.568v-470.528L670.72 404.992c16.896 16.896 44.032 16.896 60.928 0 16.896-16.896 16.896-44.032 0-60.928l-189.952-189.952a42.9568 42.9568 0 0 0-60.928 0l-189.952 189.952c-16.384 16.896-16.384 44.544 1.024 60.928 16.896 16.384 43.52 16.384 60.416 0l115.712-115.712z m363.52-240.128V204.79999999999995c0 24.064 19.456 43.008 43.008 43.008 24.064 0 43.008-19.456 43.008-43.008v-198.656c0-24.064-19.456-43.008-43.008-43.008-3.072 0-5.632 0.512-8.704 1.024-3.072-0.512-5.632-1.024-8.704-1.024h-691.2c-3.072 0-5.632 0.512-8.704 1.024-23.552-4.608-46.08 10.24-51.2 33.792-0.512 3.072-1.024 5.632-1.024 8.704V204.79999999999995c0 24.064 19.456 43.008 43.008 43.008 24.064 0 43.008-19.456 43.008-43.008v-155.648h640.512z"  horiz-adv-x="1024" />

    
    <glyph glyph-name="iphone-opportunities" unicode="&#58940;" d="M580.440765 22.49661900000001L443.541839 22.49661900000001c-20.503986 0-37.134759-15.830547-37.134759-35.348066 0-19.509333 16.630772-35.33988 37.134759-35.33988l136.898927 0c20.50501 0 37.134759 15.83157 37.134759 35.33988C617.5745 6.666071999999986 600.944751 22.49661900000001 580.440765 22.49661900000001zM635.184577 128.51216499999998L388.801097 128.51216499999998c-20.503986 0-37.133735-15.823384-37.133735-35.33988 0-19.517519 16.629749-35.33374 37.133735-35.33374l246.38348 0c20.50501 0 37.119409 15.815197 37.119409 35.33374C672.303986 112.68878099999995 655.688563 128.51216499999998 635.184577 128.51216499999998zM511.989767 816.19235c-171.974793 0-311.861774-133.177162-311.861774-296.893874 0-87.466074 39.678698-168.486342 108.086717-224.467331 13.913894-11.386328 22.134113-28.297486 22.134113-46.275953l0-25.139563c0-32.828686 26.613124-59.442834 59.442834-59.442834l244.392126 0c32.828686 0 59.442834 26.613124 59.442834 59.442834l0 25.12933c0 17.983583 8.225335 34.898835 22.145369 46.285163 68.422346 55.967686 108.098997 137.004327 108.098997 224.468354C823.870983 683.0141639999999 683.968653 816.19235 511.989767 816.19235z"  horiz-adv-x="1024" />

    
    <glyph glyph-name="iphone-phase" unicode="&#58941;" d="M105.728 153.27999999999997c-7.04 0-12.8 5.76-12.8 12.8L92.928 346.688c0 7.04 5.76 12.8 12.8 12.8l197.824 0c7.04 0 12.8-5.76 12.8-12.8l0-180.608c0-7.04-5.76-12.8-12.8-12.8L105.728 153.27999999999997zM414.72 153.27999999999997c-7.04 0-12.8 5.76-12.8 12.8L401.92 754.112c0 7.04 5.76 12.8 12.8 12.8L612.48 766.912c7.04 0 12.8-5.76 12.8-12.8l0-588.032c0-7.04-5.76-12.8-12.8-12.8L414.72 153.27999999999997zM719.68 153.27999999999997c-7.04 0-12.8 5.76-12.8 12.8L706.88 565.12c0 7.04 5.76 12.8 12.8 12.8l197.824 0c7.04 0 12.8-5.76 12.8-12.8l0-398.976c0-7.04-5.76-12.8-12.8-12.8L719.68 153.34400000000005zM930.304 13.888000000000034c0-7.04-5.76-12.8-12.8-12.8L105.728 1.0879999999999654c-7.04 0-12.8 5.76-12.8 12.8l0 40.384c0 7.04 5.76 12.8 12.8 12.8l811.776 0c7.04 0 12.8-5.76 12.8-12.8L930.304 13.888000000000034z"  horiz-adv-x="1024" />

    
    <glyph glyph-name="zoom-in" unicode="&#58943;" d="M512 871.619048C242.688 871.619048 24.380952 653.312 24.380952 384c0-269.287619 218.307048-487.619048 487.619048-487.619048s487.619048 218.331429 487.619048 487.619048C999.619048 653.312 781.312 871.619048 512 871.619048z m0-897.657905c-226.450286 0-410.038857 183.588571-410.038857 410.038857 0 226.474667 183.588571 410.038857 410.038857 410.038857S922.038857 610.474667 922.038857 384c0-226.450286-183.588571-410.038857-410.038857-410.038857zM735.50019 384c0-23.454476-19.017143-42.471619-42.471619-42.471619H330.99581a42.471619 42.471619 0 0 0 0 84.943238h362.00838c23.478857 0 42.496-19.017143 42.496-42.471619zM512 607.50019c23.454476 0 42.471619-19.017143 42.471619-42.471619v-362.008381a42.471619 42.471619 0 0 0-84.943238 0V565.00419c0 23.478857 19.017143 42.496 42.471619 42.496z"  horiz-adv-x="1024" />

    
    <glyph glyph-name="iphone-sorting" unicode="&#59056;" d="M701.184-10.879999999999995c0-30.08-27.584-53.12-60.352-53.12s-60.352 23.04-60.352 53.12V778.88c0 47.744 64.192 69.824 101.76 38.592l258.688-215.36a49.088 49.088 0 0 0 0-77.248c-24.32-19.328-58.752-19.328-83.008 0l-156.8 131.008V-10.879999999999995zM322.688 778.88c0 30.08 27.52 53.12 60.352 53.12 32.768 0 60.352-23.04 60.352-53.12v-789.76c0-47.744-64.256-69.824-101.952-38.592l-258.624 215.36a49.088 49.088 0 0 0 0 77.248c24.32 19.392 58.816 19.392 83.136 0l156.736-131.008V778.88z"  horiz-adv-x="1024" />

    
    <glyph glyph-name="rotate" unicode="&#59404;" d="M714.666667-113.77777800000001h-554.666667c-70.542222 0-128 57.344-128 127.658667V439.552c0 70.456889 57.457778 127.658667 128 127.658667h554.666667c70.542222 0 128-57.315556 128-127.658667v-425.671111c0-70.314667-57.457778-127.658667-128-127.658667z m-554.666667 595.911111a42.666667 42.666667 0 0 1-42.666667-42.581333v-425.671111a42.666667 42.666667 0 0 1 42.666667-42.552889h554.666667a42.666667 42.666667 0 0 1 42.666666 42.552889V439.552a42.666667 42.666667 0 0 1-42.666666 42.552889h-554.666667z m789.333333-29.582222A42.666667 42.666667 0 0 0 910.222222 478.151111c-90.88 207.217778-308.565333 238.08-430.222222 238.08a42.666667 42.666667 0 0 0-42.666667 42.581333 42.666667 42.666667 0 0 0 42.666667 42.552889c242.432 0 427.804444-105.443556 508.444444-289.223111a42.609778 42.609778 0 0 0-21.987555-56.120889 44.373333 44.373333 0 0 0-17.123556-3.413333zM469.333333 635.7902220000001a42.666667 42.666667 0 0 0-30.236444 12.430222l-80.554667 80.440889a42.524444 42.524444 0 0 0 0 60.216889L439.096889 869.347556a42.666667 42.666667 0 0 0 60.359111-60.245334l-50.460444-50.346666 50.460444-50.318223A42.524444 42.524444 0 0 0 469.333333 635.7902220000001z"  horiz-adv-x="1024" />

    
    <glyph glyph-name="zoom-on" unicode="&#59017;" d="M327.168 440.32h370.176c31.232 0 56.32-25.088 56.32-56.32s-25.088-56.32-56.32-56.32H327.168c-31.232 0-56.32 25.088-56.32 56.32s25.088 56.32 56.32 56.32zM512 896C229.376 896 0 666.624 0 384s229.376-512 512-512 512 229.376 512 512S794.624 896 512 896z m2.048-939.52c-233.984 0-423.936 189.952-423.936 423.936s189.952 423.936 423.936 423.936c233.984 0 423.936-189.952 423.936-423.936 0-233.984-189.952-423.424-423.936-423.936z"  horiz-adv-x="1024" />

    
    <glyph glyph-name="payment" unicode="&#58939;" d="M916.29344754 48.69726590000005a87.34570285 87.34570285 0 0 0-6.31054715-33.75 118.40624973 118.40624973 0 0 0-16.73437473-27.421875 80.22656223 80.22656223 0 0 0-27.2109375-19.05468805 87.08203098 87.08203098 0 0 0-33.55664117-6.328125H197.82274387a89.17382813 89.17382813 0 0 0-62.82421848 25.36523438A83.49609348 83.49609348 0 0 0 114.02782199 12.837890900000048a87.39843723 87.39843723 0 0 0-6.29296847 33.82031223V527.96484375a81.47460938 81.47460938 0 0 0 25.11914035 61.18945285 83.58398438 83.58398438 0 0 0 60.75 25.3125h634.72851617a80.50781277 80.50781277 0 0 0 60.75-25.3125 84.8847659 84.8847659 0 0 0 25.1367182-61.171875v-130.88671875H700.50438504a80.17382785 80.17382785 0 0 1-60.69726563-25.33007785 84.84960938 84.84960938 0 0 1-25.18945339-61.24218723c0-15.3984375 3.60351535-30.5859375 10.51171847-44.296875 5.20312527-12.21679715 13.97460938-22.53515598 25.13671903-29.58398437 15.11718777-9.14062473 32.6074216-13.57031223 50.23828152-12.69140653H916.29344754v-175.25390597zM778.65672879 658.0078125H348.55516629c33.22265625 19.26562473 66.46289035 36.38671875 95.57226535 53.54296848 27.03515652 15.01171902 51.96093723 27.89648438 78.94335938 42.83789117 24.92578152 15.01171902 45.84374973 25.71679715 60.27539062 34.34765598A116.7714841 116.7714841 0 0 0 641.56493164 805.875a132.6796875 132.6796875 0 0 0 43.59375027-8.57812527c13.42968777-6.8378909 25.4355466-16.31249973 35.34960911-27.89648438l58.14843777-111.39257785z m-120.4101568-346.81640652a43.34765625 43.34765625 0 0 0 35.4375 41.67773492 42.92578125 42.92578125 0 0 0 47.49609403-26.70117242 43.76953125 43.76953125 0 0 0-16.27734403-52.41796875 42.64453152 42.64453152 0 0 0-54.07031222 5.57226589 43.43554715 43.43554715 0 0 0-12.58593778 31.86914036z"  horiz-adv-x="1024" />

    
    <glyph glyph-name="invoice" unicode="&#58971;" d="M571.90924268 805.00605038h366.88980487a118.75643646 118.75643646 0 0 0 72.99176111-19.9858395 99.92919672 99.92919672 0 0 0 43.1578265-83.03295548c0.96549967-61.21266751 0.67584952-122.42533503 0-183.44490243a76.08135938 76.08135938 0 0 0-54.74382083-68.55046298 68.06771356 68.06771356 0 0 1-48.27497415-60.7299181 67.58496414 67.58496414 0 0 1 42.38542776-68.55046298c6.56539673-2.89649817 13.22734267-5.59989707 19.88928946-8.39984602a62.37126645 62.37126645 0 0 0 40.74407776-60.92301736c0.77239957-62.08161713 0.77239957-124.83908377-0.19309927-187.59654959-0.96549967-49.91632334-45.57157608-95.19824927-95.48789941-99.73609661-13.51699282-1.25514898-27.13053571-1.93099932-40.64752855-1.93099933H210.6193357c-38.61997915 0-72.79866101 9.654995-97.12924778 42.28887772a114.89443863 114.89443863 0 0 0-23.26853787 70.77111164V247.23699755999996a73.76416067 73.76416067 0 0 0 51.65422256 70.28836304A69.70906274 69.70906274 0 0 1 193.43344512 381.0552268a67.58496414 67.58496414 0 0 1-44.21987703 67.58496333c-26.74433551 11.00669404-49.33702386 26.26158608-55.13002021 57.44721972a105.43254373 105.43254373 0 0 0-1.44824908 19.30998999c0 57.92996915 0.77239957 115.85993828 0 173.78990744A108.32904189 108.32904189 0 0 0 204.72978848 805.77844995c83.51570572-3.08959826 167.22451072-0.77239957 251.02986658-0.77239957H571.90924268z m1.0620497-305.67713654h209.51338844a34.468332 34.468332 0 0 1 30.22013397 23.7512873 28.96498416 28.96498416 0 0 1-13.42044279 34.17868186 56.09551987 56.09551987 0 0 1-26.9374356 6.9515961H373.88529852a115.18408878 115.18408878 0 0 1-11.97219369 0 35.14418152 35.14418152 0 0 1-28.96498416-25.00643711 30.12358392 30.12358392 0 0 1 15.44799134-34.46833118 54.84037087 54.84037087 0 0 1 23.94438738-5.50334702c66.52291443-0.09655005 133.04582886 0.09655005 200.63079299 0.09655005z m0-294.47734322H367.89920209c-20.46858893 0-35.62693094-13.03424341-35.82003104-29.54428446s14.96524192-30.12358392 35.91658108-30.70288339h406.57183293a56.86791943 56.86791943 0 0 1 19.88928945 3.28269837 27.90293528 27.90293528 0 0 1 19.30998917 25.00643628 25.87538589 25.87538589 0 0 1-15.54454138 26.06848599 63.04711597 63.04711597 0 0 1-25.19953638 5.50334702c-66.71601453 0.67584952-133.5285791 0.48274942-200.05149354 0.3862002z m0.86894962 179.67945382H372.24394934a58.50926862 58.50926862 0 0 1-29.93048383-9.65499417 22.88233767 22.88233767 0 0 1-0.57929946-38.61997998 57.92996915 57.92996915 0 0 1 30.70288338-10.71704388q200.53424295-1.06204971 400.58573649-0.1931001a57.06101953 57.06101953 0 0 1 28.96498416 9.07569552 23.84783734 23.84783734 0 0 1 0 41.70957744 55.80587055 55.80587055 0 0 1-27.90293445 8.11019586c-66.90911463 0.57929947-133.5285791 0.28965015-200.53424378 0.28964931z"  horiz-adv-x="1172" />

    
    <glyph glyph-name="b-mobile" unicode="&#58935;" d="M780.586667 896L249.728 896C180.309333 896 124.074667 839.594667 124.074667 770.048l0-758.698667c0-70.186667 56.277333-125.952 125.653333-125.952l530.816 0c69.418667 0 125.653333 56.405333 125.653333 125.952L906.197333 770.048C906.24 840.234667 849.962667 896 780.586667 896zM249.557333 770.048c0 0.341333 0.128 0.469333 0.170667 0.469333l530.816 0c0.341333 0 0.170667 0.170667 0.170667-0.469333l0-501.504L249.557333 268.544 249.557333 770.048zM431.146667 112.72533299999998c0 37.973333 30.464 68.778667 68.693333 68.778667l57.472 0c37.930667 0 68.693333-30.506667 68.693333-68.778667 0-37.973333-30.464-68.778667-68.693333-68.778667l-57.472 0C461.909333 43.98933299999999 431.146667 74.49599999999998 431.146667 112.72533299999998z"  horiz-adv-x="1024" />

    
    <glyph glyph-name="s-delete" unicode="&#58938;" d="M212.028 56.54200000000003c0-60.279 48.665-109.457 108.947-109.457h382.05c60.283 0 109.369 49.178 109.369 109.457v436.307h-600.366v-436.307zM621.367 411.289c0 15.056 12.221 27.287 27.29 27.287s27.29-12.231 27.29-27.287v-327.459c0-15.083-12.221-27.289-27.29-27.289s-27.29 12.206-27.29 27.289v327.459zM484.922 411.289c0 15.056 12.22 27.287 27.29 27.287 15.069 0 27.289-12.231 27.289-27.287v-327.459c0-15.083-12.22-27.289-27.289-27.289-15.07 0-27.29 12.206-27.29 27.289v327.459zM348.475 411.289c0 15.056 12.221 27.287 27.29 27.287s27.29-12.231 27.29-27.287v-327.459c0-15.083-12.221-27.289-27.29-27.289s-27.29 12.206-27.29 27.289v327.459zM812.182 711.154h-163.525v54.881c0 30.14-24.649 54.272-54.789 54.272h-163.734c-30.142 0-54.368-24.132-54.368-54.272v-54.88h-163.947c-30.142 0-54.368-24.133-54.368-54.272v-54.577c0-30.14 24.199-54.88 54.326-54.88h600.461c30.113 0 54.735 24.74 54.735 54.88v54.577c0 30.138-24.649 54.272-54.789 54.272zM594.079 711.154h-163.737v27.594c0 15.082 12.009 26.983 27.079 26.983h109.156c15.07 0 27.501-11.902 27.501-26.983v-27.594z"  horiz-adv-x="1024" />

    
    <glyph glyph-name="address-book" unicode="&#59954;" d="M816.8768 806.4h-602.4c-48.672 0-88.1472-39.4944-88.1472-88.1376v-113.8848h17.6256c19.4112 0 35.2608-17.328 35.2608-36.7296 0-19.3728-15.8496-36.7392-35.2608-36.7392H126.3296v-110.1888h17.6256c19.4112 0 35.2608-17.328 35.2608-36.7296 0-19.3632-15.8496-36.7296-35.2608-36.7296H126.3296v-110.1792h17.6256c19.4112 0 35.2608-17.328 35.2608-36.7392 0-19.584-15.8496-36.7296-35.2608-36.7296H126.3296v-113.856c0-48.672 39.4752-88.1568 88.1568-88.1568h602.3904c48.6528 0 80.7936 39.4848 80.7936 88.1568V718.2719999999999c0 48.6432-32.1408 88.1376-80.7936 88.1376zM698.7392 107.01120000000003c-42.3072-24.4992-158.3136 40.7424-248.4192 197.28-90.096 156.576-88.5216 290.0352-46.0224 314.544 36.6624 21.1584 85.5168 62.4 120.7776-17.7888 35.2512-80.3904 4.4064-91.872-33.504-113.712-26.4384-15.3504 3.0144-80.1024 36.336-138.0576 33.3312-58.0032 74.5536-116.0064 101.0112-100.6848 37.9104 22.0128 63.2736 43.1712 114.96-27.6576 51.6576-70.9152-8.4768-92.5824-45.1392-113.9232z"  horiz-adv-x="1024" />

    
    <glyph glyph-name="reply" unicode="&#58937;" d="M1166.5740652 114.91651853999997C1083.67286456 295.91747397999995 921.3246794 530.80420979 609.75433278 560.5104732699999a75.30192435 75.30192435 0 0 0-65.6301176 73.22939468V745.65648886A33.85132364 33.85132364 0 0 1 511.65457799 779.5078125a31.77879396 31.77879396 0 0 1-20.72529996-7.59927706l-345.42167026-321.93299662-4.83590338-4.14506014a78.06529727 78.06529727 0 0 1-6.21758984-105.69903108l12.43517968-12.43517967 341.96745411-329.53227367a29.70626349 29.70626349 0 0 1 21.41614319-8.29012031 32.46963718 32.46963718 0 0 1 33.85132365 29.70626351V157.74880571999995a74.61108112 74.61108112 0 0 0 73.22939389 76.6836108c200.34456894-4.14506015 363.38359732-30.39710672 494.64383251-154.74890809l6.90843308-6.90843305a26.94289057 26.94289057 0 0 1 17.96192704-6.21759061 33.16048041 33.16048041 0 0 1 32.46963719 33.85132364 31.77879396 31.77879396 0 0 1-2.76337369 14.50771013z"  horiz-adv-x="1362" />

    
    <glyph glyph-name="business-intelligence" unicode="&#58932;" d="M455.74826667 251.08479999999997a85.33333333 85.33333333 0 1 1 151.00586666 46.96746667l85.6064 148.13866666a85.33333333 85.33333333 0 1 1-59.93813333 32.768L545.92853333 329.1136a85.67466667 85.67466667 0 0 1-57.68533333-17.95413333l-77.55093333 44.78293333a85.33333333 85.33333333 0 1 1-35.84-58.1632l80.896-46.6944zM553.64266667 840.704l340.3776-196.47146667c22.7328-13.1072 36.72746667-37.41013333 36.72746666-63.6928v-392.94293333c0-26.28266667-13.99466667-50.51733333-36.72746666-63.6928L553.64266667-72.63573333a73.5232 73.5232 0 0 0-73.5232 0l-340.30933334 196.47146666a73.5232 73.5232 0 0 0-36.72746666 63.6928V580.4714666699999c0 26.28266667 13.99466667 50.51733333 36.72746666 63.6928l340.30933334 196.47146666a73.5232 73.5232 0 0 0 73.5232 0z"  horiz-adv-x="1024" />

    
    <glyph glyph-name="announcement" unicode="&#58923;" d="M795.04111701 97.32883896999999a36.06841901 36.06841901 0 0 0-51.60666606 6.04655803 38.2479917 38.2479917 0 0 0 5.97624913 52.87222431 303.17158384 303.17158384 0 0 1 111.08791817 235.74543584c0 92.80762783-41.27127072 178.6546832-110.66606542 235.53450907a38.2479917 38.2479917 0 0 0-5.83563126 52.80191538 36.06841901 36.06841901 0 0 0 51.53635712 5.97624911A379.10509662 379.10509662 0 0 0 933.83070559 391.99305715a379.10509662 379.10509662 0 0 0-138.78958859-294.66421819zM703.78028315 215.23671176000005a36.06841901 36.06841901 0 0 0-51.53635713 6.04655722 38.2479917 38.2479917 0 0 0 5.9059402 52.8722243c34.87316886 28.40475888 55.54395868 71.36344061 55.54395868 117.83756387 0 46.4038135-20.53017197 89.29218713-55.3330319 117.76725413A38.2479917 38.2479917 0 0 0 652.59547067 562.6325355700001a36.06841901 36.06841901 0 0 0 51.53635629 5.97624913 227.51930511 227.51930511 0 0 0 82.9643942-176.61572755c0-69.67602961-31.07649325-134.28982452-83.31593802-176.75634539zM160.43380914 594.9042789800001h140.61761747L462.83199558 784.38651837a67.07460334 67.07460334 0 0 0 99.41665567-1.19524933c12.86651184-14.06176199 20.03801028-32.90452212 20.03801028-52.59098858v-693.24485532C582.28666152-4.12677154000005 550.78831553-37.875 511.97785239-37.875a68.19954456 68.19954456 0 0 0-50.6926508 23.13159824L301.05142661 173.05142661000002H160.43380914c-38.81046231 0-70.30880915 24.39715649-70.30880914 65.94966211V524.5954706699999c0 41.55250562 31.49834602 70.30880915 70.30880914 70.30880831z"  horiz-adv-x="1024" />

    
    <glyph glyph-name="approval-19" unicode="&#59047;" d="M213.333333 853.333333h597.333334a85.333333 85.333333 0 0 0 85.333333-85.333333v-768a85.333333 85.333333 0 0 0-85.333333-85.333333H213.333333a85.333333 85.333333 0 0 0-85.333333 85.333333V768a85.333333 85.333333 0 0 0 85.333333 85.333333z m298.666667-512a192 192 0 1 1 0 384 192 192 0 0 1 0-384z m-266.666667-64a32 32 0 0 1 0-64h362.666667a32 32 0 0 1 0 64h-362.666667z m0-149.333333a32 32 0 0 1 0-64h234.666667a32 32 0 0 1 0 64h-234.666667z m194.325334 369.28l-51.52 52.992a14.442667 14.442667 0 0 0-3.370667 14.784c1.706667 5.184 6.186667 8.96 11.605333 9.749333l70.784 10.666667 31.850667 67.541333a14.592 14.592 0 0 0 26.389333-0.064l31.616-67.733333 70.656-10.88a14.442667 14.442667 0 0 0 11.584-9.813333 14.442667 14.442667 0 0 0-3.413333-14.72l-51.626667-52.821334 11.648-72.490666a14.570667 14.570667 0 0 0-13.802666-19.157334h-0.192a15.466667 15.466667 0 0 0-6.762667 1.642667l-63.232 35.157333-63.146667-34.752a14.549333 14.549333 0 0 0-21.397333 15.125334l12.330667 74.752z m342.741333-218.517333l-162.090667-158.250667a42.666667 42.666667 0 0 1-12.202666-22.997333l-7.722667-43.157334a10.666667 10.666667 0 0 1 13.546667-12.096l44.8 13.312a42.666667 42.666667 0 0 1 17.642666 10.368l161.322667 157.397334a21.333333 21.333333 0 0 1 0 30.549333l-25.493333 24.874667a21.333333 21.333333 0 0 1-29.802667 0z"  horiz-adv-x="1024" />

    
    <glyph glyph-name="approval-20" unicode="&#59055;" d="M810.666667 380.458667c-13.866667 2.346667-28.138667 3.541333-42.666667 3.541333-141.376 0-256-114.624-256-256 0-89.045333 45.461333-167.466667 114.432-213.333333H128a85.333333 85.333333 0 0 0-85.333333 85.333333V768a85.333333 85.333333 0 0 0 85.333333 85.333333h448v-149.333333a85.333333 85.333333 0 0 1 85.333333-85.333333h149.333334v-238.208zM202.666667 704a32 32 0 0 1 0-64h234.666666a32 32 0 0 1 0 64h-234.666666z m0-170.666667a32 32 0 0 1 0-64h448a32 32 0 0 1 0 64h-448z m258.176-277.333333l-139.434667 118.656A30.250667 30.250667 0 0 1 299.733333 384c-8.106667 0-15.893333-3.285333-21.653333-9.173333l-137.408-117.333334a32.597333 32.597333 0 0 1 2.602667-42.88 30.208 30.208 0 0 1 41.6-1.28l84.138666 62.058667v-243.52c0-17.6 13.845333-31.872 30.912-31.872s30.890667 14.272 30.890667 31.872V275.39200000000005l86.869333-63.530667c12.245333-8.789333 28.8-7.296 39.402667 3.541334A32.64 32.64 0 0 1 460.842667 256zM768-85.33333300000004c-117.824 0-213.333333 95.509333-213.333333 213.333333s95.509333 213.333333 213.333333 213.333333 213.333333-95.509333 213.333333-213.333333-95.509333-213.333333-213.333333-213.333333z m105.237333 185.536h-84.778666v37.653333h84.778666c7.893333-0.576 15.424 2.837333 19.626667 8.874667a16.96 16.96 0 0 1 0 19.669333c-4.074667 6.037333-11.733333 9.450667-19.626667 8.874667h-54.805333l54.677333 48.576a17.557333 17.557333 0 0 1 6.293334 13.290666 17.962667 17.962667 0 0 1-6.293334 13.312 23.146667 23.146667 0 0 1-29.866666 0l-77.866667-68.906666-77.738667 68.906666a23.04 23.04 0 0 1-29.994666 0 17.557333 17.557333 0 0 1-6.293334-13.312c0-4.992 2.346667-9.770667 6.293334-13.290666l54.912-48.576h-51.328c-11.221333-0.576-19.989333-8.746667-19.989334-18.773334 0-10.005333 8.746667-18.197333 19.989334-18.773333h84.778666v-37.525333h-84.906666c-11.605333 0-21.098667-8.405333-21.098667-18.773334 0-10.346667 9.386667-18.773333 21.12-18.773333h84.885333v-43.776c0-10.453333 9.493333-18.88 21.226667-18.88s21.226667 8.426667 21.226667 18.88v43.797333h84.778666c11.605333 0 21.098667 8.405333 21.098667 18.773334 0 10.346667-9.386667 18.773333-21.12 18.773333zM576 853.333333l234.666667-234.666666h-149.333334a85.333333 85.333333 0 0 0-85.333333 85.333333V853.333333z"  horiz-adv-x="1024" />

    
    <glyph glyph-name="approval-18" unicode="&#59044;" d="M810.666667 380.458667c-13.866667 2.346667-28.138667 3.541333-42.666667 3.541333-141.376 0-256-114.624-256-256 0-89.045333 45.461333-167.466667 114.432-213.333333H128a85.333333 85.333333 0 0 0-85.333333 85.333333V768a85.333333 85.333333 0 0 0 85.333333 85.333333h597.333333a85.333333 85.333333 0 0 0 85.333334-85.333333v-387.541333zM426.666667 341.33333300000004a192 192 0 1 1 0 384 192 192 0 0 1 0-384zM160 277.33333300000004a32 32 0 0 1 0-64h277.333333a32 32 0 0 1 0 64h-277.333333z m0-149.333333a32 32 0 0 1 0-64h192a32 32 0 0 1 0 64h-192z m194.325333 369.28l-51.52 52.992a14.442667 14.442667 0 0 0-3.370666 14.784c1.706667 5.184 6.186667 8.96 11.605333 9.749333l70.784 10.666667 31.850667 67.541333a14.592 14.592 0 0 0 26.389333-0.064l31.616-67.733333 70.656-10.88a14.442667 14.442667 0 0 0 11.584-9.813333 14.442667 14.442667 0 0 0-3.413333-14.72l-51.626667-52.821334 11.648-72.490666a14.570667 14.570667 0 0 0-13.802667-19.157334h-0.192a15.466667 15.466667 0 0 0-6.762666 1.642667l-63.232 35.157333-63.146667-34.752a14.549333 14.549333 0 0 0-21.397333 15.125334l12.330666 74.752zM768-85.33333300000004c-117.824 0-213.333333 95.509333-213.333333 213.333333s95.509333 213.333333 213.333333 213.333333 213.333333-95.509333 213.333333-213.333333-95.509333-213.333333-213.333333-213.333333z m28.437333 199.850666v26.517334c21.077333 9.92 35.562667 30.528 35.562667 54.336C832 228.86400000000003 803.349333 256 768 256s-64-27.136-64-60.629333c0-23.808 14.485333-44.416 35.562667-54.336v-26.517334H704a42.666667 42.666667 0 0 1-42.666667-42.666666v-38.186667h213.333334v38.186667a42.666667 42.666667 0 0 1-42.666667 42.666666h-35.562667z m-128-94.293333V0h199.125334v20.202667h-199.125334z"  horiz-adv-x="1024" />

    
    </font>
</defs>
</svg>
