<?xml version="1.0" standalone="no"?>
<!DOCTYPE svg PUBLIC "-//W3C//DTD SVG 1.1//EN" "http://www.w3.org/Graphics/SVG/1.1/DTD/svg11.dtd" >
<!--
2013-9-30: Created.
-->
<svg>
<metadata>
Created by iconfont
</metadata>
<defs>

<font id="wk" horiz-adv-x="1024" >
  <font-face
    font-family="wk"
    font-weight="500"
    font-stretch="normal"
    units-per-em="1024"
    ascent="896"
    descent="-128"
  />
    <missing-glyph />
    
    <glyph glyph-name="icon-save" unicode="&#59106;" d="M827 834H197A135 135 0 0 1 62 699v-630A135.3375 135.3375 0 0 1 197-66h630A135.3375 135.3375 0 0 1 962 69V699A135 135 0 0 1 827 834z m-84.65625-62.6625V454.3125H281.7125V771.3375H742.34375zM899.3375 69a72.16875 72.16875 0 0 0-72.3375-72H197a72.16875 72.16875 0 0 0-72.3375 72V699c0 39.9375 32.4 72.28125 72.3375 72.3375h21.9375V422.8125a31.1625 31.1625 0 0 1 31.33125-31.1625h523.35a31.1625 31.1625 0 0 1 31.3875 31.1625V771.3375H827c39.9375 0 72.28125-32.4 72.3375-72.3375v-630zM632.9375 521.5875a31.5 31.5 0 0 1 31.33125 31.5V682.29375a31.3875 31.3875 0 0 1-62.71875 0v-129.20625a31.5 31.5 0 0 1 31.275-31.5h0.1125zM287 255.41250000000002h450a32.11875 32.11875 0 0 0 0-64.29375H287a32.11875 32.11875 0 0 0 0 64.29375z"  horiz-adv-x="1024" />

    
    <glyph glyph-name="icon-draft" unicode="&#59105;" d="M822.68918518-4.361481479999952H201.31081482V772.36148148h621.37837036v-776.72296296m0 854.39525926H201.31081482c-42.84112592 0-77.6722963-34.83117037-77.6722963-77.6722963v-776.72296296c0-42.84112592 34.83117037-77.6722963 77.6722963-77.6722963h621.37837036c42.84112592 0 77.6722963 34.83117037 77.6722963 77.6722963V772.36148148c0 42.84112592-34.83117037 77.6722963-77.6722963 77.6722963zM589.79365925 578.18074075c0-21.48124445-17.3549037-38.83614815-38.83614814-38.83614816h-233.01688889c-21.48124445 0-38.83614815 17.3549037-38.83614814 38.83614816s17.3549037 38.83614815 38.83614814 38.83614814h233.01688889c21.48124445 0 38.83614815-17.3549037 38.83614814-38.83614814zM745.01688889 422.83614815c0-21.48124445-17.3549037-38.83614815-38.83614814-38.83614815H317.81925925c-21.48124445 0-38.83614815 17.3549037-38.83614814 38.83614815s17.3549037 38.83614815 38.83614814 38.83614815h388.3614815c21.48124445 0 38.83614815-17.3549037 38.83614814-38.83614815zM745.01688889 267.49155555000004c0-21.48124445-17.3549037-38.83614815-38.83614814-38.83614814H317.81925925c-21.48124445 0-38.83614815 17.3549037-38.83614814 38.83614814s17.3549037 38.83614815 38.83614814 38.83614815h388.3614815c21.48124445 0 38.83614815-17.3549037 38.83614814-38.83614815z"  horiz-adv-x="1024" />

    
    <glyph glyph-name="icon-structure" unicode="&#59101;" d="M597.333333 256h341.333334a42.666667 42.666667 0 0 1 42.666666 42.666667v170.666666a42.666667 42.666667 0 0 1-42.666666 42.666667h-341.333334a42.666667 42.666667 0 0 1-42.666666-42.666667v-42.666666H256V554.666667h298.666667a42.666667 42.666667 0 0 1 42.666666 42.666666V810.666667a42.666667 42.666667 0 0 1-42.666666 42.666666H85.333333a42.666667 42.666667 0 0 1-42.666666-42.666666v-213.333334a42.666667 42.666667 0 0 1 42.666666-42.666666h85.333334v-512a42.666667 42.666667 0 0 1 42.666666-42.666667h341.333334v-42.666667a42.666667 42.666667 0 0 1 42.666666-42.666666h341.333334a42.666667 42.666667 0 0 1 42.666666 42.666666v170.666667a42.666667 42.666667 0 0 1-42.666666 42.666667h-341.333334a42.666667 42.666667 0 0 1-42.666666-42.666667v-42.666667H256v256h298.666667v-42.666666a42.666667 42.666667 0 0 1 42.666666-42.666667z m42.666667 170.666667h256v-85.333334h-256zM128 640V768h384v-128z m512-554.666667h256v-85.333333h-256z"  horiz-adv-x="1024" />

    
    <glyph glyph-name="icon-search-note" unicode="&#59099;" d="M637.7 194.29999999999995m-96 0a96 96 0 1 1 192 0 96 96 0 1 1-192 0ZM800 800H672v-192h192V736c0 35.2-28.8 64-64 64zM640 544c-17.6 0-32 14.4-32 32V800H224c-35.2 0-64-28.8-64-64v-704c0-35.2 28.8-64 64-64h576c5.7 0 11.3 0.8 16.5 2.2L726 60.799999999999955c-25.3-16.8-55.6-26.5-88.2-26.5-88.4 0-160 71.6-160 160s71.6 160 160 160 160-71.6 160-160c0-32.6-9.8-62.9-26.5-88.2l90.6-90.6c1.4 5.3 2.2 10.8 2.2 16.5V544H640zM415.8 297.4c-5.8-5.8-13.8-9.4-22.6-9.4h-96c-17.6 0-32 14.4-32 32 0 8.8 3.6 16.8 9.4 22.6 5.8 5.8 13.8 9.4 22.6 9.4h96c17.6 0 32-14.4 32-32 0-8.8-3.6-16.8-9.4-22.6z m288 128c-5.8-5.8-13.8-9.4-22.6-9.4h-384c-17.6 0-32 14.4-32 32 0 8.8 3.6 16.8 9.4 22.6 5.8 5.8 13.8 9.4 22.6 9.4h384c17.6 0 32-14.4 32-32 0-8.8-3.6-16.8-9.4-22.6z"  horiz-adv-x="1024" />

    
    <glyph glyph-name="icon-double-note" unicode="&#59094;" d="M960-128H320a64 64 0 0 0-64 64v128h512a64 64 0 0 1 64 64V448h128a64 64 0 0 0 64-64v-448a64 64 0 0 0-64-64z m-256 256H64a64 64 0 0 0-64 64V832a64 64 0 0 0 64 64h640a64 64 0 0 0 64-64v-640a64 64 0 0 0-64-64zM384 704H128v-64h256V704z m128-192H128v-64h384V512z"  horiz-adv-x="1024" />

    
    <glyph glyph-name="icon-note" unicode="&#59095;" d="M896-128H128a64 64 0 0 0-64 64V832a64 64 0 0 0 64 64h768a64 64 0 0 0 64-64v-896a64 64 0 0 0-64-64zM256 192h384v64H256v-64z m512 448H256v-64h512V640z m0-192H256v-64h512V448z"  horiz-adv-x="1024" />

    
    <glyph glyph-name="icon-category-note" unicode="&#59096;" d="M896-128H128a64 64 0 0 0-64 64V832a64 64 0 0 0 64 64h768a64 64 0 0 0 64-64v-896a64 64 0 0 0-64-64zM320 704H256v-64h64V704z m0-256H256v-64h64V448z m0-256H256v-64h64v64z m448 512H448v-64h320V704z m0-256H448v-64h320V448z m0-256H448v-64h320v64z"  horiz-adv-x="1024" />

    
    <glyph glyph-name="icon-gift" unicode="&#59093;" d="M85.930667-54.01599999999996c0-24.576 7.125333-31.317333 29.44-31.317333l353.365333 0L468.736 384.256 85.930667 384.256 85.930667-54.01599999999996zM555.264-85.33333300000004l353.365333 0c22.357333 0 29.44 6.698667 29.44 31.317333L938.069333 384.256l-382.848 0L555.221333-85.33333300000004zM938.666667 640l-213.333333 0c51.498667 11.733333 105.898667 49.706667 112.597333 94.293333 7.850667 50.858667-52.565333 127.957333-125.653333 118.186667-87.424-12.117333-151.509333-89.258667-196.736-149.077333C470.656 762.069333 412.16 830.592 328.362667 850.517333c-81.152 19.2-136.746667-64.938667-135.253333-116.992C194.56 689.28 245.717333 651.690667 298.666667 640L85.333333 640C58.965333 640 42.666667 625.152 42.666667 597.333333l0-170.581333L469.333333 426.666667 469.333333 640l85.333333 0 0-213.333333 426.666667 0.085333L981.333333 597.333333C981.333333 625.152 964.992 640 938.666667 640zM251.648 717.8240000000001C236.885333 734.250667 246.869333 756.565333 256.128 773.418667c17.024 29.696 40.746667 47.744 81.152 30.933333 56.32-23.509333 97.792-73.216 131.584-117.802667C397.312 678.656 290.56 675.5840000000001 251.648 717.8240000000001zM562.944 687.317333c34.816 44.629333 75.221333 89.941333 131.157333 117.802667 58.581333 28.970667 113.024-49.322667 85.205333-86.912-21.418667-28.544-89.258667-31.232-125.909333-32.853333C623.317333 683.818667 592.896 684.544 562.944 687.317333z"  horiz-adv-x="1024" />

    
    <glyph glyph-name="icon-user-fill" unicode="&#59218;" d="M315.306667 190.336a341.333333 341.333333 0 1 0 393.429333 0l88.874667-203.093333a21.333333 21.333333 0 0 0-19.584-29.909334H245.973333a21.333333 21.333333 0 0 0-19.584 29.866667l88.874667 203.136z m31.104 237.610667a170.752 170.752 0 0 1 331.178666 0l-82.773333 20.693333a85.333333 85.333333 0 0 0-165.632 0l-82.773333-20.693333z"  horiz-adv-x="1024" />

    
    <glyph glyph-name="icon-shop-cart" unicode="&#59089;" d="M342.199 77.60199999999998c13.2 0 25.6-2.4 37.2-7.2 11.8-4.8 22-11.6 31-20.2 9-8.6 15.8-18.8 20.6-30.6 4.8-11.8 7.2-24.2 7.2-37.2s-2.4-25.4-7.2-37.2c-4.8-11.8-11.8-22-20.6-30.6-9-8.6-19.2-15.4-31-20.6-11.8-5.2-24.2-7.8-37.2-7.8-13.8 0-26.4 2.6-37.8 7.8s-21.6 12-30.6 20.6-15.8 18.8-20.6 30.6c-4.8 11.8-7.2 24.2-7.2 37.2s2.4 25.6 7.2 37.2c4.8 11.8 11.8 21.8 20.6 30.6 9 8.6 19.2 15.4 30.6 20.2S328.399 77.60199999999998 342.199 77.60199999999998L342.199 77.60199999999998zM772.198 75.60199999999998c13.2 0 25.6-2.4 37.8-7.2 12-4.8 22.4-11.6 31-20.2s15.6-18.8 20.6-30.6c5.2-11.8 7.8-24.2 7.8-37.2 0-13-2.6-25.4-7.8-37.2-5.2-11.8-12-22-20.6-30.4-8.6-8.6-19-15.4-31-20.6-12-5.2-24.6-7.8-37.8-7.8s-25.6 2.6-37.2 7.8c-11.8 5.2-21.8 12-30.6 20.6-8.6 8.6-15.6 18.8-20.6 30.4-5.2 11.6-7.8 24-7.8 37.2s2.6 25.6 7.8 37.2c5.2 11.6 12 21.8 20.6 30.6 8.6 8.6 18.8 15.4 30.6 20.2C746.798 73.202 759.198 75.60199999999998 772.198 75.60199999999998L772.198 75.60199999999998zM945.998 662.8009999999999c19.2 0 34.2-2.6 45-7.8 10.6-5.2 18.2-11.6 22.8-19.2s6.6-15.6 6.2-24.2c-0.4-8.6-1.6-16-3.6-22.2-2-6.2-6.4-19-13-38.2s-14-40.4-22.2-63.6c-8.2-23.2-16.4-46-24.2-68.8-8-22.8-14-40.6-18-53.8-9-27.6-20.4-46.6-34.2-57.4-13.8-10.6-30.6-16-50.6-16L311.199 291.601l15.6-93 520.999 0c33 0 49.6-14.2 49.6-42.4 0-13.8-3.2-25.6-9.8-35.6-6.6-10-19.4-15-38.8-15L306.999 105.601c-13.8 0-25.4 3-34.6 9.2-9.4 6.2-17 14.2-23.2 24.2-6.2 10-11.2 20.8-15 32.6-3.8 11.8-6.8 22.8-8.8 33-0.6 4.2-2.6 14.2-5.6 30-3.2 15.8-7 35.6-11.4 59.4-4.4 23.8-9.4 50.4-15 79.6-5.6 29.2-11 58.8-16.6 88.4-13.2 69.6-28 147.2-44.4 232.599L54.8 694.6c-10.4 0-19 2.6-25.8 7.8-7 5.4-12.6 11.6-17.2 18.8s-7.6 15-9.2 23.2C0.8 752.8 0 760.2 0 767.2c0 13.8 4.6 25.2 14 34.2s21.8 13.4 37.8 13.4l104.4 0c13.8 0 24.8-2 33-6.2s14.8-9.4 19.6-15.6c4.8-6.2 8.2-12.8 10.4-19.6 2-7 3.8-12.8 5.2-17.6 1.4-5.6 2.8-13.2 4.2-23.2 1.4-10 2.8-20.2 4.2-30.4 2-12.4 4.2-25.6 6.2-39.4L945.998 662.8 945.998 662.8009999999999z"  horiz-adv-x="1024" />

    
    <glyph glyph-name="icon-sell" unicode="&#59091;" d="M514.00390625 549.6a137.22011719 137.22011719 0 0 0 136.97929688 137.16035156 137.22011719 137.22011719 0 0 0 137.0399414-137.16035156 137.22011719 137.22011719 0 0 0-137.0390625-137.10058594 137.22011719 137.22011719 0 0 0-136.98105469 137.10058594m442.50029297 201.23964844c0 43.08046875-34.98046875 78.12070313-76.61953125 78.12070312h-0.06064453C878.50390625 829.02011719 743.20332031 834 641.0234375 834 523.42314453 834 512.80332031 828.30029297 500.08378906 815.57988281L318.22314453 633.60058594 84.8234375 400.01982422a78.60058594 78.60058594 0 0 1 0.23994141-110.99970703l331.86005859-332.04023438c14.87988281-14.82011719 34.56035156-22.97988281 55.61982422-22.97988281 20.99970703 0 40.55976563 8.1 55.19970703 22.79970703L787.484375 216.60000000000002l155.57958984 155.75976563c13.73994141 13.68017578 26.63964844 26.63964844 13.44023438 378.47988281"  horiz-adv-x="1024" />

    
    <glyph glyph-name="icon-inventory" unicode="&#59092;" d="M317.613105 222.74438099999998h290.669714a71.92381 71.92381 0 0 1 70.753524 73.142857V455.777524a24.966095 24.966095 0 0 1-24.624762 25.404952H317.613105a24.966095 24.966095 0 0 1-24.624762-25.404952v-207.628191a25.014857 25.014857 0 0 1 24.624762-25.404952z m53.394285 300.860952h229.961143a24.966095 24.966095 0 0 1 24.624762 25.404953v97.523809a24.966095 24.966095 0 0 1-24.624762 25.161143H371.00739a24.966095 24.966095 0 0 1-24.624761-25.453714v-97.52381a24.966095 24.966095 0 0 1 24.624761-25.404952z m-321.828571-300.860952h181.686857a24.966095 24.966095 0 0 1 24.624762 25.404952V498.151619a25.112381 25.112381 0 0 0 24.722286 25.404952 25.014857 25.014857 0 0 1 24.380952 25.404953V605.1352380000001a24.966095 24.966095 0 0 1-24.624762 25.404952H49.130057A24.966095 24.966095 0 0 1 24.505295 605.1352380000001v-356.985905a24.966095 24.966095 0 0 1 24.624762-25.404952zM910.021486 798.47619h-25.258667a146.285714 146.285714 0 0 1-143.750095-148.187428l-0.292572-401.993143a87.28381 87.28381 0 0 0-85.967238-88.600381H49.666438a24.966095 24.966095 0 0 1-24.624762-25.404952v-105.959619a24.966095 24.966095 0 0 1 24.624762-25.404953h59.099429a106.300952 106.300952 0 0 0 104.594285 104.350476 106.25219 106.25219 0 0 0 104.594286-104.350476h253.561905a104.643048 104.643048 0 0 0 209.237333 0 91.37981 91.37981 0 0 1 89.916953 92.647619V606.744381a56.368762 56.368762 0 0 0 55.442285 57.197714 24.966095 24.966095 0 0 1 24.868572 25.453715V756.102095A41.593905 41.593905 0 0 1 910.021486 798.47619zM216.285867 70.16838099999995A74.752 74.752 0 0 1 211.555962-79.23809500000004a74.752 74.752 0 0 1 4.87619 149.357714z m461.970285 0a74.752 74.752 0 1 1 70.022096-72.265143 73.581714 73.581714 0 0 1-70.022096 72.265143z"  horiz-adv-x="1024" />

    
    <glyph glyph-name="icon-b-setting" unicode="&#59085;" d="M512 384m-506.31111111 0a506.31111111 506.31111111 0 1 1 1012.62222222 0 506.31111111 506.31111111 0 1 1-1012.62222222 0ZM641.13777778 404.82133333c1.82044445 11.49155555 2.84444445 23.21066667 2.84444444 35.27111112 0 6.48533333-0.34133333 12.85688889-0.91022222 19.22844444l-47.104 18.77333333c-3.64088889 16.61155555-9.67111111 32.31288889-17.63555555 46.87644445l22.9831111 45.16977778c-10.80888889 14.67733333-23.32444445 27.98933333-37.43288888 39.59466666l-46.64888889-20.36622222c-13.53955555 8.41955555-28.10311111 15.13244445-43.80444445 19.68355556L458.06933333 657.06666667c-10.92266667 1.70666667-22.18666667 2.61688889-33.67822222 2.61688888-7.28177778 0-14.56355555-0.34133333-21.61777778-1.024l-18.20444444-47.33155555c-15.24622222-3.52711111-29.80977778-8.98844445-43.23555556-16.15644445L296.50488889 618.38222222c-15.01866667-10.80888889-28.672-23.43822222-40.50488889-37.66044444l20.25244445-46.42133333c-8.53333333-13.42577778-15.36-27.98933333-20.13866667-43.5768889l-48.35555556-15.47377777c-1.82044445-11.49155555-2.84444445-23.21066667-2.84444444-35.27111111 0-6.48533333 0.34133333-12.85688889 0.91022222-19.22844445l47.104-18.77333333c3.64088889-16.61155555 9.67111111-32.31288889 17.63555555-46.87644444L247.46666667 310.04444445c10.80888889-14.67733333 23.32444445-27.98933333 37.43288888-39.59466667l46.6488889 20.36622222c13.53955555-8.41955555 28.10311111-15.13244445 43.80444444-19.68355555l15.47377778-48.24177778c10.92266667-1.70666667 22.18666667-2.61688889 33.67822222-2.61688889 7.28177778 0 14.56355555 0.34133333 21.61777778 1.024l18.20444444 47.33155555c15.24622222 3.52711111 29.80977778 8.98844445 43.23555556 16.15644445l44.82844444-23.43822223c15.01866667 10.80888889 28.672 23.43822222 40.50488889 37.66044445l-20.25244445 46.42133333c8.53333333 13.42577778 15.36 27.98933333 20.13866667 43.57688889l48.35555556 15.81511111z m-216.63288889-63.26044444c-54.38577778 0-98.53155555 44.14577778-98.53155556 98.53155556s44.14577778 98.53155555 98.53155556 98.53155555 98.53155555-44.14577778 98.53155556-98.53155555c0-54.49955555-44.14577778-98.53155555-98.53155556-98.53155556zM424.73244445 439.75111111m-50.97244445 0a50.97244445 50.97244445 0 1 1 101.94488889 0 50.97244445 50.97244445 0 1 1-101.94488889 0ZM817.83466667 194.67377778000002c0.91022222 5.34755555 1.36533333 10.92266667 1.36533333 16.49777777 0 3.072-0.11377778 6.03022222-0.45511111 8.98844445l-22.07288889 8.76088889c-1.70666667 7.73688889-4.55111111 15.13244445-8.192 21.95911111l10.69511111 21.16266667c-5.00622222 6.82666667-10.92266667 13.08444445-17.52177778 18.54577778l-21.84533333-9.55733334c-6.37155555 3.98222222-13.19822222 7.05422222-20.48 9.216l-7.28177778 22.64177778c-5.12 0.79644445-10.35377778 1.25155555-15.70133333 1.25155556-3.41333333 0-6.82666667-0.22755555-10.12622222-0.45511112l-8.53333334-22.18666666c-7.168-1.70666667-13.99466667-4.20977778-20.25244444-7.62311112l-20.93511111 10.92266667c-7.05422222-5.12-13.42577778-11.03644445-19.00088889-17.63555555l9.44355556-21.73155556c-3.98222222-6.25777778-7.168-13.08444445-9.44355556-20.48l-22.64177778-7.28177778c-0.91022222-5.34755555-1.36533333-10.92266667-1.36533333-16.49777778 0-3.072 0.11377778-6.03022222 0.45511111-8.98844444l22.07288889-8.76088889c1.70666667-7.73688889 4.55111111-15.13244445 8.192-21.95911111l-10.69511111-21.16266666c5.00622222-6.82666667 10.92266667-13.08444445 17.52177778-18.54577778l21.84533333 9.55733333c6.37155555-3.98222222 13.19822222-7.05422222 20.48-9.216l7.28177777-22.64177778c5.12-0.79644445 10.35377778-1.25155555 15.70133334-1.25155555 3.41333333 0 6.82666667 0.22755555 10.12622222 0.45511111l8.53333334 22.18666667c7.168 1.70666667 13.99466667 4.20977778 20.25244444 7.6231111l20.93511111-10.92266666c7.05422222 5.12 13.42577778 11.03644445 19.00088889 17.63555556l-9.44355556 21.73155555c3.98222222 6.25777778 7.168 13.08444445 9.44355556 20.48l22.64177778 7.28177778z m-101.60355556-29.58222223c-25.48622222 0-46.19377778 20.70755555-46.19377778 46.19377778 0 25.48622222 20.70755555 46.19377778 46.19377778 46.19377778 25.48622222 0 46.19377778-20.70755555 46.19377778-46.19377778 0-25.6-20.70755555-46.19377778-46.19377778-46.19377778zM716.34488889 211.05777778000004m-23.89333334 0a23.89333333 23.89333333 0 1 1 47.78666667 0 23.89333333 23.89333333 0 1 1-47.78666667 0Z"  horiz-adv-x="1024" />

    
    <glyph glyph-name="icon-b-people" unicode="&#59087;" d="M0.234057 387.320686C0.234057 106.43748600000004 227.913143-121.27085699999998 508.781714-121.27085699999998c280.868571 0 508.576914 227.693714 508.576915 508.576914 0 280.868571-227.693714 508.562286-508.576915 508.562286C227.927771 895.882971 0.234057 668.189257 0.234057 387.320686zM417.031314 522.181486a88.502857 88.502857 0 1 0 177.020343 0 88.502857 88.502857 0 0 0-177.005714 0z m81.8176-361.252572c-61.0304 0-116.297143 11.117714-156.320914 29.227886a203.922286 203.922286 0 0 0-1.653029 26.448457c0 104.565029 74.605714 189.381486 166.721829 189.381486 92.116114 0 166.736457-84.816457 166.736457-189.381486 0-5.763657-0.3072-11.410286-0.731428-17.086171-40.535771-23.464229-103.7312-38.590171-174.752915-38.590172zM663.010743 470.718171a48.171886 48.171886 0 1 1 96.329143 0 48.171886 48.171886 0 0 1-96.329143 0zM712.206629 407.420343c-25.834057 0-49.195886-12.346514-65.770058-32.007314 27.691886-18.826971 47.864686-56.393143 52.589715-101.0688 2.779429-0.1024 5.558857-0.1024 8.440685-0.1024 38.6048 0 73.084343 8.235886 95.100343 20.992 0.2048 3.101257 0.4096 6.187886 0.4096 9.274514 0 56.802743-40.6528 102.912-90.770285 102.912zM255.853714 470.718171a48.171886 48.171886 0 1 1 96.343772 0 48.171886 48.171886 0 0 1-96.329143 0zM303.0016 407.420343c25.834057 0 49.195886-12.346514 65.770057-32.007314-27.691886-18.826971-47.864686-56.393143-52.589714-101.0688-2.779429-0.1024-5.558857-0.1024-8.440686-0.1024-38.6048 0-73.084343 8.235886-95.100343 20.992-0.2048 3.101257-0.4096 6.187886-0.4096 9.274514 0.1024 56.802743 40.5504 102.912 90.770286 102.912z"  horiz-adv-x="1024" />

    
    <glyph glyph-name="icon-b-ttms" unicode="&#59088;" d="M0.234057 387.320686C0.234057 106.43748600000004 227.913143-121.27085699999998 508.781714-121.27085699999998c280.868571 0 508.576914 227.693714 508.576915 508.576914 0 280.868571-227.693714 508.562286-508.576915 508.562286C227.927771 895.882971 0.234057 668.189257 0.234057 387.320686zM336.062171 372.23862899999995a177.239771 177.239771 0 0 0 74.708115 117.204114 123.435886 123.435886 0 0 0-10.5472 27.882057 206.6432 206.6432 0 0 1-93.915429-148.333714 116.180114 116.180114 0 0 0 27.326172 3.247543h2.428342z m350.5152 0c10.283886-0.263314 20.304457-1.887086 30.047086-4.593372a207.228343 207.228343 0 0 1-88.239543 145.890743 115.448686 115.448686 0 0 0-11.629714-27.3408 179.0976 179.0976 0 0 0 69.822171-113.956571z m-97.162971-188.913372a178.263771 178.263771 0 0 0-78.218971-18.139428c-29.783771 0-57.6512 7.314286-82.0224 20.304457a121.314743 121.314743 0 0 0-20.567772-21.928229 206.365257 206.365257 0 0 1 102.590172-27.3408c35.986286 0 69.822171 9.216 99.328 25.453714a114.293029 114.293029 0 0 0-21.109029 21.650286zM516.169143 548.7616m-94.544457 0a94.544457 94.544457 0 1 1 189.088914 0 94.544457 94.544457 0 1 1-189.088914 0ZM331.819886 253.74720000000002m-94.544457 0a94.544457 94.544457 0 1 1 189.088914 0 94.544457 94.544457 0 1 1-189.088914 0ZM683.285943 253.74720000000002m-94.544457 0a94.544457 94.544457 0 1 1 189.088914 0 94.544457 94.544457 0 1 1-189.088914 0Z"  horiz-adv-x="1024" />

    
    <glyph glyph-name="icon-eye-solid" unicode="&#59083;" d="M1023.997 384.169c0-99.79-211.129-312.67-511.999-312.67C218.787 71.49900000000002 0 280.875 0 384.169c0 103.279 219.73 312.334 511.999 312.334 303.234-0.001 512.071-209.057 511.999-312.335L1023.998 384.169zM512.45 639.471C376.184 639.471 265.72 525.087 265.72 384c0-141.089 110.463-255.471 246.729-255.471 136.307 0 246.774 114.383 246.774 255.471C759.223 525.087 648.756 639.471 512.45 639.471L512.45 639.471zM511.999 547.0989999999999c-86.778 0-157.126-72.827-157.126-162.673 0-89.836 70.348-162.677 157.126-162.677s157.097 72.841 157.097 162.677C669.096 474.273 598.776 547.0989999999999 511.999 547.0989999999999L511.999 547.0989999999999z"  horiz-adv-x="1024" />

    
    <glyph glyph-name="icon-upload" unicode="&#59084;" d="M793.6 537.6C768 668.8 652.8 768 512 768s-256-99.2-281.6-230.4C134.4 512 64 422.4 64 320c0-124.8 99.2-224 224-224h32v64h-32c-89.6 0-160 70.4-160 160s70.4 160 160 160c0 124.8 99.2 224 224 224s224-99.2 224-224c89.6 0 160-70.4 160-160s-70.4-160-160-160h-32v-64h32c124.8 0 224 99.2 224 224 0 102.4-70.4 192-166.4 217.6zM540.8 406.4c-12.8 9.6-25.6 12.8-38.4 6.4-3.2 0-6.4-3.2-9.6-6.4l-96-92.8c-12.8-12.8-12.8-32 0-44.8 12.8-12.8 35.2-12.8 48 0l38.4 35.2v-272c0-19.2 16-32 32-32 19.2 0 32 16 32 32V304l38.4-35.2c12.8-12.8 35.2-12.8 48 0 12.8 12.8 12.8 32 0 44.8l-92.8 92.8z"  horiz-adv-x="1024" />

    
    <glyph glyph-name="icon-forbid" unicode="&#59082;" d="M512 864a480 480 0 1 1 480-480A480 480 0 0 1 512 864z m384-480a379.2 379.2 0 0 0-81.12-235.2L276.8 686.88A379.2 379.2 0 0 0 512 768a384 384 0 0 0 384-384zM128 384a379.2 379.2 0 0 0 81.12 235.2L747.2 81.12A379.2 379.2 0 0 0 512 0a384 384 0 0 0-384 384z"  horiz-adv-x="1024" />

    
    <glyph glyph-name="icon-my" unicode="&#59078;" d="M640.26757813 319.04882812000005c83.49609375 45.58886719 140.28222656 134.20898438 140.28222656 235.86328126C780.54980469 702.98144531 660.078125 823.453125 512 823.453125S243.45019531 702.98144531 243.45019531 554.90332031c0-101.64550781 56.78613281-190.27441406 140.28222656-235.86328125C214.70996094 275.11230469 92.98144531 144.55957031000003 72.71386719-28.20703125a24.41601563 24.41601563 0 0 1 21.41015625-27.07910156c13.18359375-1.7578125 25.48828125 7.98925781 27.08789062 21.41015625C143.33398437 154.68457031000003 304.05078125 286.36230469 512 286.36230469s368.66601563-131.67773438 390.78808594-320.21191406a24.41601563 24.41601563 0 0 1 24.22265625-21.60351563 23.02734375 23.02734375 0 0 1 2.86523437 0.16699219 24.41601563 24.41601563 0 0 1 21.41015625 27.07910156c-20.26757813 172.76660156-141.99609375 303.31933594-311.01855468 347.25585938zM292.2734375 554.90332031c0 121.15722656 98.56054688 219.7265625 219.7265625 219.7265625s219.7265625-98.56054688 219.7265625-219.7265625-98.56054688-219.7265625-219.7265625-219.7265625-219.7265625 98.56933594-219.7265625 219.7265625z"  horiz-adv-x="1024" />

    
    <glyph glyph-name="icon-medal" unicode="&#59080;" d="M741.05798135 365.28430137L639.15947158 380.11602627l-45.65944072 92.39203212c-9.44573379 19.23568506-40.97200869 19.23568506-50.41774248 0L497.42284678 380.11602627l-101.89850889-14.83172491a28.11447158 28.11447158 0 0 1-15.60115283-47.94747539l73.79416142-71.88071659-17.41335732-101.53404405a28.10434747 28.10434747 0 0 1 40.77965215-29.63307832L568.29115918 162.16559356000005l91.20751787-47.92722715a28.10434747 28.10434747 0 0 1 40.77965215 29.63307919l-17.41335644 101.53404317 73.79416142 71.8807166a28.11447158 28.11447158 0 0 1-15.60115283 47.94747539zM633.02430078 275.37266133a28.11447158 28.11447158 0 0 1-8.09923535-24.88490245l10.27590468-59.95459159-53.85991728 28.28658076a27.98285977 27.98285977 0 0 1-26.14028291 0l-53.85991729-28.28658076L511.59650908 250.48775888a28.11447158 28.11447158 0 0 1-8.09923535 24.88490245l-43.53339199 42.46024307 60.16719727 8.75729794a28.07397597 28.07397597 0 0 1 21.16937724 15.37842393l26.99070293 54.56860048 26.94008321-54.56860048a28.07397597 28.07397597 0 0 1 21.16937724-15.37842393l60.21781699-8.75729794zM1026.48517138 628.82330683l-143.76143408-143.76143319a367.42182803 367.42182803 0 0 1-50.53923017 66.81869472l234.06791133 234.00716748a28.11953408 28.11953408 0 0 1-39.76724708 39.76724707L790.23046572 589.43064961c-61.61493604 47.29953691-138.43618594 75.75822597-221.93930654 75.75822597s-160.32437051-28.44856582-221.93930655-75.75822597L110.09714698 825.68535528A28.1306707 28.1306707 0 1 1 70.3298999 785.88773584L304.35731562 551.88056836a367.42182803 367.42182803 0 0 1-50.53923105-66.81869472l-143.7614332 143.76143319A28.11953408 28.11953408 0 0 1 70.2894043 589.05605977l157.42889385-157.42889385a363.08873672 363.08873672 0 0 1-25.05701075-132.02766651c0-201.57985283 164.00952334-365.58937529 365.58937617-365.58937529s365.58937529 164.00952334 365.5893753 365.5893753a363.08873672 363.08873672 0 0 1-25.05701074 132.0276665l157.42889473 157.42889385a28.11953408 28.11953408 0 0 1-39.76724796 39.76724707zM568.29115918-9.750807710000004c-170.56990372 0-309.35030801 138.77028018-309.35030801 309.35030712S397.72125547 608.9396833000001 568.29115918 608.9396833000001s309.35030801-138.77028018 309.35030801-309.34018388S738.86106289-9.750807710000004 568.29115918-9.750807710000004z"  horiz-adv-x="1152" />

    
    <glyph glyph-name="icon-seal" unicode="&#59135;" d="M896-32H128c-17.6 0-32 14.4-32 32s14.4 32 32 32h768c17.6 0 32-14.4 32-32s-14.4-32-32-32z m0 128H128c-17.6 0-32 14.4-32 32V288c0 52.8 43.2 96 96 96h204.8c-6.4 38.4-25.6 75.2-52.8 107.2-36.8 41.6-56 94.4-56 148.8 0 60.8 24 118.4 68.8 161.6 44.8 43.2 102.4 64 164.8 62.4C636.8 859.2 734.4 760 736 644.8c1.6-57.6-20.8-113.6-59.2-156.8-27.2-28.8-43.2-64-49.6-104H832c52.8 0 96-43.2 96-96v-160c0-17.6-14.4-32-32-32z m-736 64h704V288c0 17.6-14.4 32-32 32H592c-17.6 0-32 14.4-32 32 0 67.2 24 131.2 68.8 179.2 28.8 30.4 43.2 70.4 43.2 112-1.6 83.2-70.4 153.6-153.6 156.8-44.8 1.6-86.4-14.4-116.8-44.8-32-30.4-49.6-72-49.6-115.2 0-38.4 14.4-76.8 40-105.6 46.4-52.8 72-116.8 72-182.4 0-17.6-14.4-32-32-32H192c-17.6 0-32-14.4-32-32v-128z"  horiz-adv-x="1024" />

    
    <glyph glyph-name="icon-forbid-user" unicode="&#59081;" d="M515.79731239 361.21612683a241.6471439 241.6471439 0 1 0 0 483.29428779 241.6471439 241.6471439 0 0 0 0-483.29428779z m0 69.04204129a172.60510261 172.60510261 0 1 1 0 345.21020521 172.60510261 172.60510261 0 0 1 0-345.21020521zM776.29293394 326.69510557a34.52102004 34.52102004 0 0 0-47.36284051-50.19356365 310.68918518 310.68918518 0 0 1-523.82196622-226.04364245 34.52102004 34.52102004 0 1 0-69.04204129 0 379.73122647 379.73122647 0 0 0 640.22684802 276.30624827zM846.50868978 90.77845135999996l73.18456336-73.18456335a34.52102004 34.52102004 0 0 0-48.81272376-48.88176595l-73.18456336 73.18456456-73.25360553-73.18456456a34.52102004 34.52102004 0 1 0-48.81272255 48.81272377l73.18456335 73.25360553-73.18456335 73.18456335a34.52102004 34.52102004 0 0 0 48.81272255 48.88176474l73.18456335-73.18456335 73.25360554 73.18456335a34.52102004 34.52102004 0 0 0 48.81272376-48.81272256l-73.18456336-73.18456335z"  horiz-adv-x="1024" />

    
    <glyph glyph-name="icon-bevel-contract" unicode="&#59075;" d="M300.575 569.005l196.662 0c11.637 0 21.068 9.433 21.068 21.07s-9.431 21.073-21.068 21.073l-196.662 0c-11.639 0-21.073-9.436-21.073-21.073s9.436-21.07 21.073-21.07zM279.502 379.365c0-11.637 9.433-21.073 21.073-21.073l421.423 0c11.632 0 21.068 9.436 21.068 21.073s-9.436 21.07-21.068 21.07l-421.423 0c-11.637 0.001-21.073-9.433-21.073-21.07zM686.877 849.952l-505.705 0c-31.032 0-56.189-25.156-56.189-56.189l0-828.795c0-31.031 25.156-56.189 56.189-56.189l674.273 0c31.031 0 56.189 25.159 56.189 56.189l0 646.179-224.757 238.805zM686.877 793.762l168.568-182.614-140.471 0c-15.522 0-28.097 12.577-28.097 28.092l0 154.522zM855.445-6.940000000000055c0-15.513-12.579-28.092-28.092-28.092l-618.086 0c-15.518 0-28.094 12.579-28.094 28.092l0 772.608c0 15.515 12.579 28.094 28.094 28.094l435.466 0 0-168.568c0-31.032 25.159-56.189 56.194-56.189l154.52 0 0-575.945-0.001 0zM721.998 175.68100000000004l-421.423 0c-11.639 0-21.073-9.436-21.073-21.073 0-11.642 9.433-21.073 21.073-21.073l421.423 0c11.632 0 21.068 9.431 21.068 21.073 0 11.637-9.436 21.073-21.068 21.073z"  horiz-adv-x="1024" />

    
    <glyph glyph-name="icon-star-contract" unicode="&#59076;" d="M838.934 860.848l-653.872 0c-35.168 0-63.7-28.531-63.7-63.699l0-826.297c0-35.168 28.532-63.699 63.7-63.699l653.872 0c35.212 0 63.701 28.532 63.701 63.699l0 826.297c0.001 35.169-28.49 63.699-63.701 63.699zM859.092-24.793999999999983c0-11.735-9.498-21.232-21.234-21.232l-653.293 0c-11.737 0-21.234 9.498-21.234 21.232l0 819.204c0 11.738 9.499 21.233 21.234 21.233l653.293 0c11.738 0 21.234-9.497 21.234-21.233l0-819.204zM463.797 246.14800000000002l-35.397 71.745-35.397-71.745-79.129-11.488 57.253-55.823-13.5-78.837 70.771 37.241 70.774-37.241-13.5 78.837 57.271 55.823zM300.564 739.583l424.675 0 0-44.251-424.675 0 0 44.251zM300.564 631.631l424.675 0 0-44.251-424.675 0 0 44.251zM300.564 526.3330000000001l424.675 0 0-44.251-424.675 0 0 44.251zM548.505 404.695c29.197-16.339 34.506-27.868 34.506-27.868l142.229 0 0 44.207-223.847 0c0 0 17.917 0 47.113-16.339zM426.412 398.931c-108.285 0-196.083-87.755-196.083-196.081 0-108.285 87.798-196.081 196.083-196.081 108.303 0 196.079 87.796 196.079 196.081 0 108.326-87.775 196.081-196.079 196.081zM426.412 33.30899999999997c-93.646 0-169.54 75.938-169.54 169.541 0 93.644 75.895 169.537 169.54 169.537 93.621 0 169.537-75.892 169.537-169.537 0-93.603-75.916-169.541-169.537-169.541z"  horiz-adv-x="1024" />

    
    <glyph glyph-name="icon-contract" unicode="&#59077;" d="M941.176 738.499l0 0c-26.234 26.234-69.08 26.234-95.313 0l-296.882-296.882 95.313-95.313 296.882 296.882c26.234 26.234 26.234 69.08 0 95.313zM519.451 333.38300000000004c-1.846-9.756 6.724-18.324 16.611-16.611l96.631 17.797-95.313 95.313-17.929-96.5zM853.834-32.85699999999997c0-17.439-14.24-31.679-31.679-31.679l-652.773 0c-17.439 0-31.679 14.24-31.679 31.679l0 791.007c0 17.439 14.24 31.679 31.679 31.679l652.773 0c11.04 0 20.639-5.6 26.239-14.079l34.238 34.078c-14.559 17.12-36.158 27.998-60.477 27.998l-652.773 0c-43.838 0-79.517-35.678-79.517-79.676l0-791.168c0-43.838 35.678-79.676 79.676-79.676l652.773 0c43.838 0 79.676 35.678 79.676 79.676l0 600.935-47.998-47.998 0-552.777zM746.638 198.49400000000003l-501.579 0c-10.56 0-19.199-8.64-19.199-19.199l0-11.999c0-10.56 8.64-19.199 19.199-19.199l501.579 0c10.56 0 19.199 8.64 19.199 19.199l0 11.999c0 10.56-8.64 19.199-19.199 19.199zM650.642 577.198l-405.583 0c-10.56 0-19.199-8.64-19.199-19.199l0-11.999c0-10.56 8.64-19.199 19.199-19.199l355.185 0 50.398 50.398zM649.362 318.32899999999995l-130.715-24.159c-13.28-2.4-24.799 9.12-22.399 22.399l1.44 8.16-252.629 0c-10.56 0-19.199-8.64-19.199-19.199l0-11.999c0-10.56 8.64-19.199 19.199-19.199l501.579 0c10.56 0 19.199 8.64 19.199 19.199l0 11.999c0 10.56-8.64 19.199-19.199 19.199l-103.675 0 6.399-6.399zM245.058 400.565l232.47 0 50.398 50.398-282.868 0c-10.56 0-19.199-8.64-19.199-19.199l0-11.999c0-10.56 8.64-19.199 19.199-19.199zM765.837 419.765l0 11.199-30.398-30.398 11.199 0c10.56 0 19.199 8.64 19.199 19.199z"  horiz-adv-x="1038" />

    
    <glyph glyph-name="icon-health-data" unicode="&#59079;" d="M959 51.71900000000005a114.5 114.5 0 0 0-229 0v24.01A165.045 165.045 0 0 0 595 238v47.1a30 30 0 0 0 30 29.9h58a30 30 0 0 0 0-60h-28v-17a105 105 0 0 1 210 0v17h-28a30 30 0 0 0 0 60h58a30 30 0 0 0 30-29.9V238a165.045 165.045 0 0 0-135-162.271V51.5a54.5 54.5 0 0 1 109 0V57v0.219a30 30 0 0 0 60 0c0-0.074 0-0.146-0.006-0.219H959v-5.281zM467.205 268.957a29.979 29.979 0 1 0 0-59.957H245.979a29.979 29.979 0 1 0 0 59.957h221.226zM216 529.021A29.979 29.979 0 0 0 245.979 559h448.042a29.979 29.979 0 1 0 0-59.957H245.979A29.979 29.979 0 0 0 216 529.021zM581.021 354H245.979A29.979 29.979 0 0 0 216 383.97900000000004v0.042A29.979 29.979 0 0 0 245.979 414h335.042A29.979 29.979 0 0 0 611 384.021v-0.042A29.979 29.979 0 0 0 581.021 354zM845 414a30 30 0 0 0-30 30V751a20 20 0 0 1-20 20H145a20 20 0 0 1-20-20v-734a20 20 0 0 1 20-20h411a30 30 0 0 0 0-60H115a50 50 0 0 0-50 50V781a50 50 0 0 0 50 50h710a50 50 0 0 0 50-50v-337a30 30 0 0 0-30-30z"  horiz-adv-x="1024" />

    
    <glyph glyph-name="icon-personal-data" unicode="&#59068;" d="M918.84347 130.29710899999998h-255.234298c-14.293121 0-25.52343 11.230309-25.523429 25.523429s11.230309 25.52343 25.523429 25.52343h255.234298c13.782652 0 25.52343 8.677966 25.523429 19.397807V825.555334c0 10.71984-11.740778 19.397807-25.523429 19.397807H408.374875c-13.782652 0-25.52343-8.677966-25.523429-19.397807v-169.986042c0-14.293121-11.230309-25.52343-25.52343-25.52343s-25.52343 11.230309-25.52343 25.52343V825.555334C331.804586 864.350947 366.005982 896 408.374875 896h510.468595c42.368893 0 76.570289-31.649053 76.570289-70.444666v-625.324028c0-38.285145-34.201396-69.934197-76.570289-69.934197zM852.993021 640.765703H485.966102c-14.293121 0-25.52343 11.230309-25.52343 25.52343s11.230309 25.52343 25.52343 25.523429h367.026919c14.293121 0 25.52343-11.230309 25.52343-25.523429s-11.230309-25.52343-25.52343-25.52343zM852.993021 487.625125H587.038883c-14.293121 0-25.52343 11.230309-25.523429 25.523429s11.230309 25.52343 25.523429 25.52343h265.954138c14.293121 0 25.52343-11.230309 25.52343-25.52343s-11.230309-25.52343-25.52343-25.523429zM852.993021 334.484546h-183.258225c-14.293121 0-25.52343 11.230309-25.52343 25.52343s11.230309 25.52343 25.52343 25.52343h183.258225c14.293121 0 25.52343-11.230309 25.52343-25.52343s-11.230309-25.52343-25.52343-25.52343zM331.804586 155.82053800000006c-112.813559 0-204.187438 91.373878-204.187437 204.187438s91.373878 204.187438 204.187437 204.187438 204.187438-91.373878 204.187438-204.187438-91.373878-204.187438-204.187438-204.187438z m0 357.328016c-84.227318 0-153.140578-68.91326-153.140578-153.140578s68.91326-153.140578 153.140578-153.140578 153.140578 68.91326 153.140579 153.140578-68.91326 153.140578-153.140579 153.140578zM638.085743-128l-27.565304 3.062812c-23.481555 1.020937-477.798604 1.020937-558.963111 0l-26.033898-0.510469v26.033898c0 168.965105 137.316052 306.281157 306.281156 306.281157s306.281157-137.316052 306.281157-306.281157v-28.586241z m-306.281157 283.820538c-132.211366 0-240.941176-100.562313-254.21336-229.710867 100.051844 0.510469 409.906281 1.020937 507.916252 0a254.928016 254.928016 0 0 1-253.702892 229.710867z"  horiz-adv-x="1024" />

    
    <glyph glyph-name="icon-handle-log" unicode="&#59074;" d="M716.8-102.39999999999998H153.6c-42.496 0-76.8 35.84-76.8 79.872V790.528C76.8 834.56 111.104 870.4 153.6 870.4h563.2c42.496 0 76.8-35.84 76.8-79.872v-233.984c0-14.336-11.264-25.6-25.6-25.6s-25.6 11.264-25.6 25.6V790.528c0 15.872-11.264 28.672-25.6 28.672H153.6c-14.336 0-25.6-12.8-25.6-28.672v-813.056c0-15.872 11.264-28.672 25.6-28.672h563.2c14.336 0 25.6 12.8 25.6 28.672v280.576c0 14.336 11.264 25.6 25.6 25.6s25.6-11.264 25.6-25.6v-280.576c0-44.032-34.304-79.872-76.8-79.872zM563.2 512H307.2c-42.496 0-76.8 34.304-76.8 76.8V640c0 42.496 34.304 76.8 76.8 76.8h256c42.496 0 76.8-34.304 76.8-76.8v-51.2c0-42.496-34.304-76.8-76.8-76.8z m-256 153.6c-14.336 0-25.6-11.264-25.6-25.6v-51.2c0-14.336 11.264-25.6 25.6-25.6h256c14.336 0 25.6 11.264 25.6 25.6V640c0 14.336-11.264 25.6-25.6 25.6H307.2zM153.6 520.704H51.2c-14.336 0-25.6 11.264-25.6 25.6s11.264 25.6 25.6 25.6h102.4c14.336 0 25.6-11.264 25.6-25.6s-11.264-25.6-25.6-25.6zM153.6 349.696H51.2c-14.336 0-25.6 11.264-25.6 25.6s11.264 25.6 25.6 25.6h102.4c14.336 0 25.6-11.264 25.6-25.6s-11.264-25.6-25.6-25.6zM153.6 179.20000000000005H51.2c-14.336 0-25.6 11.264-25.6 25.6s11.264 25.6 25.6 25.6h102.4c14.336 0 25.6-11.264 25.6-25.6s-11.264-25.6-25.6-25.6zM512 25.600000000000023H409.6c-14.336 0-25.6 11.264-25.6 25.6s11.264 25.6 25.6 25.6h102.4c14.336 0 25.6-11.264 25.6-25.6s-11.264-25.6-25.6-25.6zM514.048 55.29600000000005l-3.584 142.336c-0.512 16.896 4.608 33.28 14.848 47.104l286.208 393.728a76.7488 76.7488 0 0 0 107.52 16.896l41.472-30.208c34.304-25.088 41.984-73.216 16.896-107.52l-286.208-393.728c-9.728-13.824-24.064-23.552-40.448-28.672l-136.704-39.936z m359.424 563.712c-1.536 0-2.56 0-4.096-0.512-6.656-1.024-12.8-4.608-16.896-10.24l-286.208-393.728a25.6 25.6 0 0 1-5.12-15.872L563.2 122.88l72.704 21.504c5.12 1.536 10.24 5.12 13.312 9.728l286.208 393.728c8.192 11.264 5.632 27.648-5.632 35.84l-41.472 30.208a21.8624 21.8624 0 0 1-14.848 5.12zM542.4128 219.28959999999995l29.44 41.8816 119.3984-83.8144-29.3888-41.8816z"  horiz-adv-x="1024" />

    
    <glyph glyph-name="icon-bankcard" unicode="&#59064;" d="M928.67 717.33H95.33A83.42 83.42 0 0 1 12 634v-500a83.42 83.42 0 0 1 83.33-83.33h833.34A83.42 83.42 0 0 1 1012 134V634a83.42 83.42 0 0 1-83.33 83.33zM95.33 661.78h833.34A27.8 27.8 0 0 0 956.44 634v-138.89H67.56V634a27.8 27.8 0 0 0 27.77 27.78z m833.34-555.56H95.33A27.8 27.8 0 0 0 67.56 134V439.56h888.88V134a27.8 27.8 0 0 0-27.77-27.78zM123.11 217.33000000000004h55.56v-55.56h-55.56zM206.44 217.33000000000004H262v-55.56h-55.56zM289.78 217.33000000000004h55.56v-55.56h-55.56zM678.67 217.33000000000004h222.22v-55.56H678.67z"  horiz-adv-x="1024" />

    
    <glyph glyph-name="icon-copy" unicode="&#59065;" d="M788.31 11.200000000000045v845A27.76 27.76 0 0 1 760.54 884H164a27.76 27.76 0 0 1-27.78-27.78v-845a27.76 27.76 0 0 1 27.78-27.8h596.54a27.76 27.76 0 0 1 27.77 27.78zM732.76 39H191.82V828.44h540.94zM860 784.58a27.76 27.76 0 0 1-27.78-27.78v-817.24H263.46a27.78 27.78 0 1 1 0-55.56H860a27.76 27.76 0 0 1 27.78 27.78v845a27.76 27.76 0 0 1-27.78 27.8zM288.31 405.92h348a27.78 27.78 0 1 1 0 55.56h-348a27.78 27.78 0 0 1 0-55.56zM288.31 604.76h348a27.78 27.78 0 1 1 0 55.56h-348a27.78 27.78 0 0 1 0-55.56zM288.31 207.11h348a27.78 27.78 0 0 1 0 55.56h-348a27.78 27.78 0 0 1 0-55.56z"  horiz-adv-x="1024" />

    
    <glyph glyph-name="icon-home" unicode="&#59066;" d="M941.67089844 507.54785156L526.64257813 818.97949219c-0.37792969 0.28125-0.87890625 0.32519531-1.23046876 0.58886719a23.30859375 23.30859375 0 0 1-4.75488281 2.25878906 24.12597656 24.12597656 0 0 1-3.95507812 1.37109375 20.66308594 20.66308594 0 0 1-13.53515625-1.45019531 23.37890625 23.37890625 0 0 1-4.53515625-2.16210938c-0.40429688-0.26367188-0.87890625-0.30761719-1.265625-0.60644531L82.32910156 507.54785156a24.41601563 24.41601563 0 1 1 29.27636719-39.06738281L512 768.9609375l400.39453125-300.48046875a24.41601563 24.41601563 0 0 1 29.27636719 39.06738281zM878.20507813 433.06054688A24.40722656 24.40722656 0 0 1 853.7890625 408.609375v-415.21289063h-219.7265625v122.16796876c0 67.33300781-54.76464844 122.16796875-122.07128906 122.16796875s-122.07128906-54.79101563-122.07128907-122.16796875v-122.16796875h-219.72656249V408.609375a24.41601563 24.41601563 0 1 1-48.82324219 0v-439.63769531A24.40722656 24.40722656 0 0 1 145.79492187-55.453125h268.54980469a24.40722656 24.40722656 0 0 1 24.41601563 24.42480469V115.52929687000005a73.23925781 73.23925781 0 1 0 146.47851562 1e-8v-146.55761719a24.40722656 24.40722656 0 0 1 24.41601563-24.42480469h268.54980469a24.40722656 24.40722656 0 0 1 24.41601562 24.42480469V408.609375a24.40722656 24.40722656 0 0 1-24.41601562 24.45117188z"  horiz-adv-x="1024" />

    
    <glyph glyph-name="icon-setup" unicode="&#59067;" d="M928.67 522.88h-53.52a384.22 384.22 0 0 1-61.47 105.9l26.94 46.6a83.45 83.45 0 0 1-30.49 113.85l-96.25 55.56a83.36 83.36 0 0 1-113.83-30.51l-26.75-46.33a384.15 384.15 0 0 1-122.61 0l-26.74 46.3a83.34 83.34 0 0 1-113.83 30.54l-96.27-55.56a83.47 83.47 0 0 1-30.46-113.85l26.94-46.6a384.22 384.22 0 0 1-61.47-105.9H95.33A83.42 83.42 0 0 1 12 439.55v-111.11a83.42 83.42 0 0 1 83.33-83.34h53.52a384.22 384.22 0 0 1 61.47-105.9l-26.94-46.6a83.45 83.45 0 0 1 30.49-113.85l96.25-55.56A82.82 82.82 0 0 1 351.65-88a83.86 83.86 0 0 1 21.7 2.88 82.73 82.73 0 0 1 50.59 38.82l26.75 46.3a384.15 384.15 0 0 1 122.61 0l26.75-46.31a83.34 83.34 0 0 1 113.82-30.54l96.27 55.56a83.47 83.47 0 0 1 30.47 113.89l-26.94 46.6a384.22 384.22 0 0 1 61.47 105.9h53.52a83.42 83.42 0 0 1 83.34 83.34V439.55a83.42 83.42 0 0 1-83.33 83.33z m27.78-194.44a27.8 27.8 0 0 0-27.78-27.78H835.3l-6.21-19.23A331.32 331.32 0 0 0 759.18 161l-13.54-15 46.85-81.14a27.81 27.81 0 0 0-10.15-38l-96.24-55.55a27.76 27.76 0 0 0-37.92 10.17l-46.69 80.84-19.75-4.23a332.11 332.11 0 0 0-139.49 0l-19.75 4.23-46.69-80.86a27.78 27.78 0 0 0-37.92-10.15l-96.22 55.56a27.8 27.8 0 0 0-10.17 38L278.36 146l-13.54 15a331.32 331.32 0 0 0-69.91 120.47l-6.21 19.23H95.33a27.8 27.8 0 0 0-27.78 27.78V439.55a27.8 27.8 0 0 0 27.78 27.78h93.37l6.21 19.23A331.32 331.32 0 0 0 264.82 607l13.54 15-46.85 81.14a27.81 27.81 0 0 0 10.15 38l96.24 55.53a27.76 27.76 0 0 0 37.92-10.17l46.69-80.84 19.75 4.23a332.11 332.11 0 0 0 139.49 0l19.75-4.23 46.69 80.86a27.78 27.78 0 0 0 37.91 10.15l96.22-55.56a27.8 27.8 0 0 0 10.17-38L745.64 622l13.54-15a331.32 331.32 0 0 0 69.91-120.47l6.21-19.23h93.37a27.8 27.8 0 0 0 27.78-27.78zM512 550.6600000000001c-91.91 0-166.67-74.76-166.67-166.67S420.09 217.32000000000005 512 217.32000000000005 678.67 292.09000000000003 678.67 384 603.91 550.6600000000001 512 550.6600000000001z m0-277.78A111.11 111.11 0 1 0 623.11 384 111.22 111.22 0 0 0 512 272.88z"  horiz-adv-x="1024" />

    
    <glyph glyph-name="icon-credentials" unicode="&#59070;" d="M1053.926 754.789h-798.626c-62.983-0.064-114.023-51.105-114.087-114.082v-513.408c0.064-62.983 51.105-114.023 114.083-114.087h798.632c62.983 0.064 114.024 51.105 114.087 114.082v513.408c-0.064 62.983-51.105 114.023-114.082 114.087zM1110.965 127.298c-0.041-31.491-25.558-57.008-57.045-57.05h-798.62c-31.487 0.047-56.998 25.562-57.038 57.045v513.405c0.04 31.491 25.558 57.008 57.045 57.049h798.62c31.487-0.047 56.998-25.562 57.039-57.045zM946.142 361.40999999999997c30.804 26.183 50.735 64.688 50.735 108.152 0 78.633-63.979 142.613-142.613 142.613s-142.601-63.98-142.601-142.613c0-43.464 19.961-81.969 50.766-108.152-63.939-33.32-107.813-100.123-107.813-177.071 0-15.753 12.772-28.524 28.524-28.524 15.753 0 28.524 12.772 28.524 28.524 0 78.633 63.98 142.612 142.612 142.612s142.613-63.979 142.613-142.612c0 0 0 0 0 0 0-15.753 12.772-28.524 28.524-28.524 15.753 0 28.524 12.772 28.524 28.524 0 0 0 0 0 0-0.009 76.948-43.854 143.752-107.795 177.071zM768.702 469.563c0 47.257 38.308 85.563 85.564 85.563s85.563-38.308 85.563-85.563c0-47.257-38.308-85.563-85.563-85.563-47.234 0.052-85.51 38.33-85.563 85.559zM626.087 555.137h-342.264c-15.753 0-28.524-12.772-28.524-28.524s12.772-28.524 28.524-28.524h342.264c15.753 0 28.524 12.772 28.524 28.524s-12.772 28.524-28.524 28.524zM597.563 412.524h-313.74c-15.753 0-28.524-12.772-28.524-28.524s12.772-28.524 28.524-28.524h313.74c15.753 0 28.524 12.772 28.524 28.524s-12.772 28.524-28.524 28.524zM512 269.913h-228.176c-15.753 0-28.524-12.772-28.524-28.524s12.772-28.524 28.524-28.524h228.176c15.753 0 28.524 12.772 28.524 28.524s-12.772 28.524-28.524 28.524z"  horiz-adv-x="1417" />

    
    <glyph glyph-name="icon-tool-cabinet" unicode="&#59071;" d="M1023.98848 767.99136H799.98488V831.99568A64.084959 64.084959 0 0 1 735.98056 896H415.99352a64.084959 64.084959 0 0 1-64.00432-64.00432v-64.00432H127.99712A128.123838 128.123838 0 0 1 0 639.99424v-639.9856a128.123838 128.123838 0 0 1 127.99712-127.99712h895.99136A128.123838 128.123838 0 0 1 1151.9856 0.00864000000001397V639.99424a128.123838 128.123838 0 0 1-127.99712 127.99712zM415.99352 831.99568h319.99856v-64.00432H415.99352z m-287.9964-127.99712h895.99136a64.084959 64.084959 0 0 0 64.00432-64.00432v-191.98992H64.00432V639.99424a64.084959 64.084959 0 0 0 63.9928 64.00432z m538.092474-319.99856C652.841759 346.836945 617.706199 319.99568 575.9928 319.99568s-76.848959 26.841264-90.096794 64.00432z m357.898886-447.99568H127.99712a64.084959 64.084959 0 0 0-64.00432 64.00432V384h355.2378c14.872134-72.932208 79.487006-127.99712 156.7622-127.99712s141.890066 55.064912 156.762201 127.99712h355.226279v-383.99136a64.084959 64.084959 0 0 0-63.9928-64.00432z"  horiz-adv-x="1151" />

    
    <glyph glyph-name="icon-barrage" unicode="&#59072;" d="M1160.878 754.789h-926.975c-51.171-0.057-92.636-41.522-92.693-92.688v-556.186c0.057-51.171 41.522-92.636 92.688-92.692h926.978c51.171 0.057 92.636 41.522 92.692 92.688v556.186c-0.057 51.171-41.522 92.636-92.688 92.693zM1191.769 105.91499999999996c-0.012-17.063-13.84-30.889-30.9-30.902h-926.965c-17.056 0.02-30.877 13.844-30.891 30.9v556.181c0.012 17.063 13.84 30.888 30.9 30.902h926.965c17.056-0.02 30.878-13.844 30.891-30.9zM851.887 384.007c0 0.007 0 0.015 0 0.022 0 17.053-13.824 30.879-30.879 30.879-0.007 0-0.017 0-0.022 0h-494.377c-17.065 0-30.902-13.836-30.902-30.902s13.836-30.902 30.902-30.902h494.377c0.007 0 0.015 0 0.022 0 17.053 0 30.879 13.824 30.879 30.879 0 0.007 0 0.017 0 0.022zM1068.175 600.2919999999999h-494.377c0 0 0 0 0 0-17.066 0-30.902-13.836-30.902-30.902 0-17.065 13.836-30.902 30.902-30.902 0 0 0 0 0 0h494.377c0 0 0 0 0 0 17.066 0 30.902 13.836 30.902 30.902 0 17.065-13.836 30.902-30.902 30.902 0 0 0 0 0 0zM1068.175 229.51h-494.377c0 0 0 0 0 0-17.066 0-30.902-13.836-30.902-30.902 0-17.065 13.836-30.902 30.902-30.902 0 0 0 0 0 0h494.377c0 0 0 0 0 0 17.066 0 30.902 13.836 30.902 30.902 0 17.065-13.836 30.902-30.902 30.902 0 0 0 0 0 0z"  horiz-adv-x="1535" />

    
    <glyph glyph-name="icon-license" unicode="&#59073;" d="M1139.489 754.789h-969.754c-0.007 0-0.013 0-0.02 0-15.742 0-28.505-12.761-28.505-28.505 0-0.007 0-0.015 0-0.021v-684.528c0-0.007 0-0.013 0-0.02 0-15.743 12.762-28.505 28.505-28.505 0.007 0 0.015 0 0.021 0h969.752c0.008 0 0.013 0 0.021 0 15.743 0 28.505 12.762 28.505 28.505 0 0.007 0 0.015 0 0.021v684.528c0 0.007 0 0.013 0 0.02 0 15.743-12.762 28.505-28.505 28.505-0.007 0-0.015 0-0.021 0zM1110.965 70.25h-912.704v627.5h912.704zM654.613 412.524c63.008 0 114.087 51.08 114.087 114.087s-51.08 114.087-114.087 114.087c-63.008 0-114.087-51.08-114.087-114.087 0 0 0 0 0 0 0.064-62.983 51.105-114.023 114.083-114.087zM654.613 583.662c0 0 0 0 0 0 31.507 0 57.05-25.542 57.05-57.05 0-31.508-25.542-57.049-57.05-57.049-31.508 0-57.049 25.542-57.049 57.049 0.047 31.487 25.562 56.998 57.045 57.039zM340.863 241.38699999999994h627.5c15.753 0 28.524 12.772 28.524 28.524s-12.772 28.524-28.524 28.524h-627.5c-15.753 0-28.524-12.772-28.524-28.524s12.772-28.524 28.524-28.524zM340.863 127.298h627.5c15.753 0.004 28.521 12.773 28.521 28.524 0 15.753-12.768 28.523-28.52 28.524h-627.5c-15.753-0.004-28.521-12.773-28.521-28.524 0-15.753 12.769-28.522 28.521-28.524z"  horiz-adv-x="1417" />

    
    <glyph glyph-name="icon-status" unicode="&#59063;" d="M954.88 658.432c0 60.416-56.832 109.568-126.464 109.568H195.584c-70.144 0-126.464-49.152-126.464-109.568v-548.352c0-60.416 56.832-109.568 126.464-109.568h632.832c70.144 0 126.464 49.152 126.464 109.568V658.432z m-803.84 28.16c11.776 10.24 28.16 16.384 45.056 15.872h632.832c34.816 0 63.488-14.336 63.488-44.544v-246.784h-50.176l-54.272 47.104c-12.288 10.752-32.256 10.752-44.544 0-3.584-3.072-6.144-6.656-7.68-10.752l-38.912-101.888L604.16 505.856c-7.68 13.312-26.624 18.944-42.496 12.288-7.168-3.072-12.288-8.192-15.36-14.336l-92.16-199.68-101.376 307.2c-4.608 14.336-22.528 23.04-38.912 18.944-8.704-2.048-15.872-7.168-19.456-14.336l-117.76-204.288H133.12V648.192c-1.024 14.336 6.144 28.16 17.92 38.4z m725.504-611.84c-7.68-7.68-31.232-9.728-48.128-9.728H195.584c-16.896 0-32.768 5.632-45.056 15.872s-18.432 24.064-18.432 38.912v236.544h63.488c11.776 0 23.04 5.632 28.16 15.36l90.112 156.16 104.448-316.416c3.584-11.264 15.36-19.456 28.672-19.968h1.536c12.8 0 24.576 6.656 29.184 17.408L578.56 427.008l95.232-164.864c7.68-13.312 26.624-18.944 42.496-12.288 7.68 3.072 13.312 8.704 15.872 15.872l47.104 122.368 27.136-23.552c6.144-5.12 13.824-8.192 22.528-8.192h62.976v-236.544c0-14.336-9.728-40.448-14.336-44.544l-1.024-0.512z"  horiz-adv-x="1024" />

    
    <glyph glyph-name="icon-time" unicode="&#59062;" d="M512 768a384 384 0 1 0-384-384 384 384 0 0 0 384 384m0 64a448 448 0 1 1 448-448 448 448 0 0 1-448 448zM480 640a32 32 0 0 1-32-32v-256a32 32 0 0 1 64 0v256a32 32 0 0 1-32 32zM736 384h-256a32 32 0 0 1 0-64h256a32 32 0 0 1 0 64z"  horiz-adv-x="1024" />

    
    <glyph glyph-name="icon-layer" unicode="&#59014;" d="M514.70545437 335.56363594000004c-12.39272719 0-23.21454562 2.09454563-32.11636312 6.24L101.94909125 518.6618184399999c-16.32 7.63636406-26.09454562 22.03636406-26.31272719 38.61818156-0.17454562 12.08727281 4.97454562 35.08363594 41.28 53.41090875l328.18909031 165.25090969c31.28727281 15.79636406 72.56727281 20.59636406 96.34909126 9.55636312l380.59636312-176.98909031c16.18909125-7.50545437 26.00727281-21.90545438 26.31272719-38.48727281 0.17454562-12.08727281-4.93090875-35.17090875-41.36727188-53.54181844l-328.18909125-165.29454562a150.98181844 150.98181844 0 0 0-64.10181844-15.62181844z m-4.75636312 65.71636406c0.30545438 0 1.92-0.26181844 4.71272719-0.26181844 10.56 0 24.17454563 3.40363594 34.69090875 8.72727281l309.64363687 155.91272719-344.94545531 160.40727281c0.21818156-0.08727281-1.61454563 0.21818156-4.71272719 0.21818157-10.60363594 0-24.26181844-3.44727281-34.8218175-8.77090875L164.87272719 561.5563640600001l345.07636406-160.27636406c-0.04363594-0.04363594-0.04363594 0 0 0z m68.81454469-245.45454562l328.18909125 165.29454562c36.43636406 18.37090875 41.54181844 41.41090875 41.36727281 53.54181844-0.30545438 16.58181844-10.12363594 30.98181844-26.35636406 38.48727281a32.85818156 32.85818156 0 0 1-46.16727188-34.42909125l-326.48727281-164.42181844c-16.23272719-8.20363594-35.04-9.77454563-39.22909125-8.59636312L159.37454562 368.72727281000004a32.72727281 32.72727281 0 0 1-42.54545437 46.56c-36.26181844-18.37090875-41.36727281-41.36727281-41.19272719-53.49818156 0.26181844-16.49454563 10.03636406-30.89454563 26.26909031-38.53090969l380.64000001-176.98909031c9.51272719-4.40727281 20.64-6.28363594 32.29090968-6.28363688a149.97818156 149.97818156 0 0 1 63.92727188 15.84000001z m0-163.85454563l328.18909125 165.25090969c36.43636406 18.37090875 41.54181844 41.41090875 41.36727281 53.5418175-0.30545438 16.58181844-10.12363594 30.98181844-26.35636406 38.53090969a32.90181844 32.90181844 0 0 1-46.16727188-34.42909125l-326.44363687-164.42181844c-16.32-8.20363594-35.08363594-9.73090875-39.27272719-8.59636313l-350.70545438 162.98181844a32.81454563 32.81454563 0 0 1 1.48363594 32.11636313 32.59636406 32.59636406 0 0 1-43.98545437 14.44363687c-36.26181844-18.32727281-41.41090875-41.32363594-41.23636313-53.41090969 0.21818156-16.53818156 9.99272719-30.93818156 26.31272719-38.61818156l380.68363594-176.98909125c9.46909125-4.36363594 20.59636406-6.19636406 32.16-6.19636312a150.98181844 150.98181844 0 0 1 63.97090875 15.79636312z"  horiz-adv-x="1024" />

    
    <glyph glyph-name="icon-work-card" unicode="&#59108;" d="M877.62499973 637.125h-224.99999946V721.5C652.62500027 766.49999973 613.25 805.875 568.25000027 805.875h-56.25000027C467.00000027 805.875 427.625 766.49999973 427.625 721.5V637.125H202.62499973C140.75 637.125 90.125 586.5 90.125 524.62500027v-450.00000054c0-61.87499973 50.625-112.49999973 112.49999973-112.49999973h675c61.87499973 0 112.49999973 50.625 112.50000054 112.49999973V524.62500027c0 61.87499973-50.625 112.49999973-112.50000054 112.49999973zM483.87500027 721.5c0 16.875 11.24999973 28.12499973 28.12499973 28.12499973h56.25000027c16.875 0 28.12499973-11.24999973 28.12499973-28.12499973v-168.75c0-16.875-11.24999973-28.12499973-28.12499973-28.12499973h-56.25000027c-16.875 0-28.12499973 11.24999973-28.12499973 28.12499973v168.75zM933.875 74.62499973000001c0-33.75-22.50000027-56.25000027-56.25000027-56.24999946H202.62499973c-33.75 0-56.25000027 22.50000027-56.24999946 56.24999946V524.62500027c0 33.75 22.50000027 56.25000027 56.24999946 56.24999946h225.00000027v-28.12499973C427.625 507.75000027 467.00000027 468.375 512 468.375h56.25000027c44.99999973 0 84.375 39.37500027 84.375 84.375V580.87499973h224.99999946c33.75 0 56.25000027-22.50000027 56.25000027-56.24999946v-450.00000054zM737.00000027 355.87500027h-393.75000027c-16.875 0-28.12499973-11.24999973-28.12499973-28.12500054s11.24999973-28.12499973 28.12499973-28.12499973h393.75000027c16.875 0 28.12499973 11.24999973 28.12499973 28.12499973s-11.24999973 28.12499973-28.12499973 28.12500054zM737.00000027 187.12500027h-393.75000027c-16.875 0-28.12499973-11.24999973-28.12499973-28.12500054s11.24999973-28.12499973 28.12499973-28.12499973h393.75000027c16.875 0 28.12499973 11.24999973 28.12499973 28.12499973s-11.24999973 28.12499973-28.12499973 28.12500054z"  horiz-adv-x="1092" />

    
    <glyph glyph-name="icon-bag-outline" unicode="&#59292;" d="M821.375-9.75h-618.75A140.79375 140.79375 0 0 0 62 130.875v393.75C62 602.1375 125.1125 665.25 202.625 665.25h618.75C898.94375 665.25 962 602.1375 962 524.625v-393.75c0-77.56875-63.05625-140.625-140.625-140.625zM202.625 609C156.10625 609 118.25 571.14375 118.25 524.625v-393.75c0-46.51875 37.85625-84.375 84.375-84.375h618.75c46.51875 0 84.375 37.85625 84.375 84.375v393.75c0 46.51875-37.85625 84.375-84.375 84.375h-618.75zM652.625 637.125h-56.25V721.725L427.625 721.5v-84.375h-56.25V721.725A56.25 56.25 0 0 0 427.625 777.75h168.75c31.05 0 56.25-25.14375 56.25-56.025V637.125zM512 325.44375a28.125 28.125 0 0 0-28.125 28.125v52.3125a28.125 28.125 0 0 0 56.25 0v-52.3125a28.125 28.125 0 0 0-28.125-28.125zM512 394.575c-140.9625 0-277.70625 16.2-406.40625 48.09375a28.125 28.125 0 1 0 13.5 54.5625c248.625-61.65 537.1875-61.65 785.8125 0a28.125 28.125 0 1 0 13.5-54.5625c-128.7-31.95-265.44375-48.09375-406.40625-48.09375z"  horiz-adv-x="1024" />

    
    <glyph glyph-name="icon-cap-outline" unicode="&#59021;" d="M1166.075 606.9580000000001l-459.53 143.136c-9.338 2.977-20.08 4.694-31.223 4.694s-21.884-1.717-31.975-4.899l-458.81-142.931c-26.32-8.172-43.326-30.272-43.326-56.272s16.984-48.143 43.315-56.356l105.75-32.911c-0.548-1.964-0.89-4.231-0.946-6.567l0.262-304.807c0-40.483 33.295-75.457 86.811-91.308l25.092-7.478c85.72-25.359 179.752-38.048 273.806-38.048s188.117 12.69 273.848 38.069l25.006 7.478c53.58 15.852 86.874 50.825 86.874 91.308v307.988c-0.333 2.379-0.913 4.525-1.725 6.553l106.803 29.722c26.298 8.214 43.283 30.337 43.283 56.356s-17.005 48.1-43.314 56.272zM1001.693 150.04499999999996c0-10.574-15.243-25.786-44.393-34.395l-25.038-7.477c-160.931-47.639-353.076-47.639-513.89 0l-25.123 7.477c-29.098 8.609-44.33 23.82-44.33 34.395v293.108l295.212-91.863c9.33-2.96 20.062-4.664 31.191-4.664s21.861 1.706 31.945 4.869l294.425 91.659zM688.919 407.924c-4.069-1.296-8.749-2.044-13.603-2.044s-9.534 0.747-13.931 2.131l-459.288 142.267 459.562 143.136c4.014 1.308 8.632 2.062 13.426 2.062 0.05 0 0.098 0 0.147 0 4.851-0.004 9.532-0.759 13.928-2.158l459.343-142.313zM1120.378 458.054c-0.008 0-0.014 0-0.021 0-16.377 0-29.653-13.276-29.653-29.653 0-0.008 0-0.016 0-0.022v-237.368c0-16.389 13.284-29.674 29.674-29.674s29.674 13.284 29.674 29.674c0 0 0 0 0 0v237.37c0 0.008 0 0.014 0 0.022 0 16.377-13.276 29.653-29.653 29.653-0.008 0-0.016 0-0.022 0z"  horiz-adv-x="1475" />

    
    <glyph glyph-name="icon-email-outline" unicode="&#59025;" d="M204.8 53.350400000000036a108.8 108.8 0 0 0-108.8 108.8V605.8496c0 60.1088 48.6912 108.8 108.8 108.8h614.4c60.1088 0 108.8-48.6912 108.8-108.8v-443.6992A108.8 108.8 0 0 0 819.2 53.350400000000036H204.8z m0 64h614.4a44.8 44.8 0 0 1 44.8 44.8V605.8496A44.8 44.8 0 0 1 819.2 650.6496H204.8a44.8 44.8 0 0 1-44.8-44.8v-443.6992c0-24.7808 20.0704-44.8 44.8-44.8zM139.5712 508.8256a32 32 0 1 0 28.0576 57.5488l335.9744-163.9936c5.2736-2.56 11.52-2.56 16.7936 0l335.9744 163.9936a32 32 0 1 0 28.0576-57.5488l-335.9232-163.9424c-23.04-11.264-49.9712-11.264-73.0112 0L139.5712 508.8256z"  horiz-adv-x="1024" />

    
    <glyph glyph-name="icon-cake" unicode="&#59060;" d="M312.888889 782.222222h56.888889v-56.888889h-56.888889zM483.555556 782.222222h56.888888v-56.888889h-56.888888zM654.222222 782.222222h56.888889v-56.888889h-56.888889zM312.888889 668.444444h56.888889v-199.111111h-56.888889zM483.555556 668.444444h56.888888v-199.111111h-56.888888zM654.222222 668.444444h56.888889v-199.111111h-56.888889zM824.888889 42.66666699999996V412.444444a28.444444 28.444444 0 0 1-28.444445 28.444445H227.555556a28.444444 28.444444 0 0 1-28.444445-28.444445v-369.777777h625.777778zM227.555556 497.777778h568.888888a85.333333 85.333333 0 0 0 85.333334-85.333334v-426.666666H142.222222V412.444444a85.333333 85.333333 0 0 0 85.333334 85.333334zM28.444444 42.66666699999996h967.111112v-56.888889H28.444444z"  horiz-adv-x="1024" />

    
    <glyph glyph-name="org" unicode="&#59016;" d="M961.5 195.5L889 195.5 889 384c0 24-19.5 43.5-43.5 43.5L541 427.5l0 145 72.5 0c24 0 43.5 19.5 43.5 43.5L657 819c0 24-19.5 43.5-43.5 43.5l-203 0C386.5 862.5 367 843 367 819l0-203c0-24 19.5-43.5 43.5-43.5L483 572.5l0-145L178.5 427.5c-24 0-43.5-19.5-43.5-43.5l0-188.5L62.5 195.5C38.5 195.5 19 176 19 152l0-203c0-24 19.5-43.5 43.5-43.5l203 0c24 0 43.5 19.5 43.5 43.5L309 152c0 24-19.5 43.5-43.5 43.5L193 195.5l0 174 290 0 0-174-72.5 0c-24 0-43.5-19.5-43.5-43.5l0-203c0-24 19.5-43.5 43.5-43.5l203 0c24 0 43.5 19.5 43.5 43.5L657 152c0 24-19.5 43.5-43.5 43.5L541 195.5l0 174 290 0 0-174-72.5 0c-24 0-43.5-19.5-43.5-43.5l0-203c0-24 19.5-43.5 43.5-43.5l203 0c24 0 43.5 19.5 43.5 43.5L1005 152C1005 176 985.5 195.5 961.5 195.5zM425 804.5l174 0 0-174L425 630.5 425 804.5zM251 137.5l0-174L77-36.5l0 174L251 137.5zM599-36.5L425-36.5l0 174 174 0L599-36.5zM947-36.5L773-36.5l0 174 174 0L947-36.5z"  horiz-adv-x="1024" />

    
    <glyph glyph-name="table" unicode="&#59020;" d="M896.021502 640.043004L607.897867 640.043004c-17.717453 0-31.994625 14.277171-31.994625 31.994625 0 17.717453 14.277171 31.994625 31.994625 31.994625l287.951621 0c17.717453 0 31.994625-14.277171 31.994625-31.994625C928.016126 654.3201750000001 913.738955 640.043004 896.021502 640.043004zM896.021502 480.069881L607.897867 480.069881c-17.717453 0-31.994625 14.277171-31.994625 31.994625s14.277171 31.994625 31.994625 31.994625l287.951621 0c17.717453 0 31.994625-14.277171 31.994625-31.994625S913.738955 480.069881 896.021502 480.069881zM896.021502 223.94087000000002L607.897867 223.94087000000002c-17.717453 0-31.994625 14.277171-31.994625 31.994625s14.277171 31.994625 31.994625 31.994625l287.951621 0c17.717453 0 31.994625-14.277171 31.994625-31.994625S913.738955 223.94087000000002 896.021502 223.94087000000002zM896.021502 63.96774700000003L607.897867 63.96774700000003c-17.717453 0-31.994625 14.277171-31.994625 31.994625s14.277171 31.994625 31.994625 31.994625l287.951621 0c17.717453 0 31.994625-14.277171 31.994625-31.994625S913.738955 63.96774700000003 896.021502 63.96774700000003zM383.935495 416.080632L191.967747 416.080632c-52.980346 0-95.983874 43.003528-95.983874 95.983874L95.983874 704.032253c0 52.980346 43.003528 95.983874 95.983874 95.983874l191.967747 0c52.980346 0 95.983874-43.003528 95.983874-95.983874l0-191.967747C479.919368 459.084159 436.915841 416.080632 383.935495 416.080632zM191.967747 736.026877c-17.545439 0-31.994625-14.449185-31.994625-31.994625l0-191.967747c0-17.545439 14.449185-31.994625 31.994625-31.994625l191.967747 0c17.545439 0 31.994625 14.449185 31.994625 31.994625L415.930119 704.032253c0 17.545439-14.449185 31.994625-31.994625 31.994625L191.967747 736.026877 191.967747 736.026877zM383.935495-32.016125999999986L191.967747-32.016125999999986c-52.980346 0-95.983874 43.003528-95.983874 95.983874L95.983874 256.10750900000005c0 52.980346 43.003528 95.983874 95.983874 95.983874l191.967747 0c52.980346 0 95.983874-43.003528 95.983874-95.983874l0-191.967747C479.919368 11.159414999999967 436.915841-32.016125999999986 383.935495-32.016125999999986zM191.967747 288.102133c-17.545439 0-31.994625-14.277171-31.994625-31.994625l0-191.967747c0-17.717453 14.449185-31.994625 31.994625-31.994625l191.967747 0c17.545439 0 31.994625 14.277171 31.994625 31.994625L415.930119 256.10750900000005c0 17.717453-14.449185 31.994625-31.994625 31.994625L191.967747 288.102133 191.967747 288.102133z"  horiz-adv-x="1024" />

    
    <glyph glyph-name="social" unicode="&#59059;" d="M556.288 798.293333L606.037333 768a453.333333 453.333333 0 0 1 188.586667-63.402667l63.146667-6.570666a42.666667 42.666667 0 0 0 38.229333-42.453334v-291.370666a341.333333 341.333333 0 0 0-202.837333-311.978667L512-28.159999999999968l-181.162667 80.426667A341.333333 341.333333 0 0 0 128 364.24533299999996v291.413334a42.666667 42.666667 0 0 0 38.272 42.410666l63.146667 6.570667A453.333333 453.333333 0 0 1 417.962667 768l49.749333 30.208a85.333333 85.333333 0 0 0 88.576 0z m-154.88-402.944a34.901333 34.901333 0 0 1-49.237333-3.584l-6.314667-7.936a129.834667 129.834667 0 0 1-25.344-77.098666v-46.634667c0-26.496 21.504-48 48-48h288c26.538667 0 48 21.504 48 48v46.634667c0 30.592-10.666667 59.392-29.184 82.048l-1.92 2.176-2.048 2.048a38.442667 38.442667 0 0 1-54.357333-2.688l-2.346667-2.602667a80.085333 80.085333 0 0 0-5.546667-5.674667 152.96 152.96 0 0 0-96.597333-34.218666 152.874667 152.874667 0 0 0-111.104 47.530666z m111.104 261.589334a115.2 115.2 0 0 1-115.2-115.2v-40.32a115.2 115.2 0 1 1 230.4 0v40.32a115.2 115.2 0 0 1-115.2 115.2z"  horiz-adv-x="1024" />

    
    <glyph glyph-name="perform" unicode="&#59015;" d="M444.4 587.4l77.5-66.5c5.6-4.8 14-4.5 19.2 0.8L723 707.6c1 1 2.7 0.3 2.7-1.1v-32.9c0-10 8.1-18.7 18.7-18.7h27.3c10 0 18.7 8.1 18.7 18.7V808.5c0 10-8.1 18.7-18.7 18.7H638.3c-11.1 0-20.3-9.1-20.3-20.3v-25.7c0-5.3 1.9-10 5.3-13.4 3.8-3.8 8.1-5.7 13.4-5.7h33c1.4 0 2.1-1.7 1.1-2.7L532.3 620.9c-3.8-3.8-9.8-4-13.8-0.5l-71 60.7c-8 6.9-20 6.4-27.5-1.1l-3-3-0.5 0.5-265.8-266c-4.6-4.6-4.6-11.9 0-16.5l37.9-37.9c3.3-3.3 8.7-3.3 12 0l229.8 229.8c3.8 3.8 9.9 4.1 14 0.5zM922.3 29.5h-66c-0.9 0-1.6 0.7-1.6 1.6v497c0 5.4-1.1 10.5-3 15.2-5.2 14.3-19 24.5-35.1 24.5H719c-14.6 0-27.2-8.4-33.3-20.6-3.1-5.7-4.9-12.2-4.9-19.1v-497c0-0.9-0.7-1.6-1.6-1.6h-82c-0.9 0-1.6 0.7-1.6 1.6V356.70000000000005c0 21.5-17.4 38.9-38.9 38.9h-93.9c-21.5 0-38.9-17.4-38.9-38.9v-325.5c0-0.9-0.7-1.6-1.6-1.6h-82.9c-0.9 0-1.6 0.7-1.6 1.6V184.39999999999998c0 21.5-17.4 38.9-38.9 38.9H205c-21.5 0-38.9-17.4-38.9-38.9v-153.3c0-0.9-0.7-1.6-1.6-1.6H100c-11.1 0-20.3-9.1-20.3-20.3V-16.5c0-5.2 1.9-10 5.2-13.3l0.1-0.1c3.8-3.3 8.6-5.2 13.3-5.2H922.2c12 0 21.9 9.8 21.9 21.9v20.9c0.1 12-9.8 21.8-21.8 21.8z"  horiz-adv-x="1024" />

    
    <glyph glyph-name="wendangx" unicode="&#59098;" d="M607.744 864H224.832c-27.008 0-49.92-9.408-68.672-28.16A90.88 90.88 0 0 1 128 769.408v-770.24c0-25.6 9.344-47.68 28.16-66.432 18.752-18.752 40.896-28.16 66.432-28.16h578.816c25.536 0 47.616 9.408 66.432 28.16a90.88 90.88 0 0 1 28.16 66.432V575.744L607.744 864z m96.832-768H319.36v96.832h385.152V96z m0 191.424H319.36V384.256h385.152v-96.832z"  horiz-adv-x="1024" />

    
    <glyph glyph-name="print" unicode="&#59134;" d="M195.59375 489.46875v-210.9375a52.734375 52.734375 0 0 1 52.734375-52.734375h527.34375a52.734375 52.734375 0 0 1 52.734375 52.734375V489.46875h52.734375a52.734375 52.734375 0 0 0 52.734375-52.734375v-369.140625a105.46875 105.46875 0 0 0-105.46875-105.46875H195.59375a105.46875 105.46875 0 0 0-105.46875 105.46875V436.734375a52.734375 52.734375 0 0 0 52.734375 52.734375h52.734375z m105.46875 316.40625h421.875a52.734375 52.734375 0 0 0 52.734375-52.734375v-421.875a52.734375 52.734375 0 0 0-52.734375-52.734375H301.0625a52.734375 52.734375 0 0 0-52.734375 52.734375V753.140625a52.734375 52.734375 0 0 0 52.734375 52.734375z m79.1015625-158.203125a26.3671875 26.3671875 0 0 1 0-52.734375h263.671875a26.3671875 26.3671875 0 1 1 0 52.734375h-263.671875z m0-158.203125a26.3671875 26.3671875 0 0 1 0-52.734375h263.671875a26.3671875 26.3671875 0 1 1 0 52.734375h-263.671875z"  horiz-adv-x="1024" />

    
    <glyph glyph-name="grid" unicode="&#59013;" d="M258.233 809.343c18.193 0 33.574-6.328 46.26-18.955 12.627-12.656 18.955-28.081 18.955-46.274v-110.933c0-18.179-6.328-33.604-18.955-46.26-12.686-12.656-28.066-18.984-46.26-18.984H147.271c-18.164 0-33.574 6.328-46.23 18.984s-18.984 28.081-18.984 46.26V744.113c0 18.193 6.328 33.618 18.984 46.274 12.656 12.627 28.066 18.955 46.23 18.955h110.962v0.001z m307.603 0c18.163 0 33.589-6.328 46.229-18.955 12.672-12.656 18.984-28.081 18.984-46.274v-110.933c0-18.179-6.313-33.604-18.984-46.26-12.641-12.656-28.066-18.984-46.229-18.984H452.911c-18.149 0-33.574 6.328-46.23 18.984s-18.984 28.081-18.984 46.26V744.113c0 18.193 6.328 33.618 18.984 46.274 12.656 12.627 28.081 18.955 46.23 18.955h112.925v0.001z m303.677 0c18.193 0 33.617-6.328 46.26-18.955 12.656-12.656 18.984-28.081 18.984-46.274v-110.933c0-18.179-6.328-33.604-18.984-46.26-12.643-12.656-28.066-18.984-46.26-18.984H756.616c-18.164 0-33.574 6.328-46.23 18.984s-18.984 28.081-18.984 46.26V744.113c0 18.193 6.328 33.618 18.984 46.274 12.656 12.627 28.066 18.955 46.23 18.955h112.897v0.001z m-611.28-305.655c18.193 0 33.574-6.328 46.26-18.955 12.627-12.656 18.955-28.066 18.955-46.23v-110.991c0-18.149-6.328-33.574-18.955-46.23-12.686-12.656-28.066-18.984-46.26-18.984H147.271c-18.164 0-33.574 6.328-46.23 18.984s-18.984 28.081-18.984 46.23V438.503c0 18.164 6.328 33.574 18.984 46.23 12.656 12.627 28.066 18.955 46.23 18.955h110.962z m307.603 0c18.163 0 33.589-6.328 46.229-18.955 12.672-12.656 18.984-28.066 18.984-46.23v-110.991c0-18.149-6.313-33.574-18.984-46.23-12.641-12.656-28.066-18.984-46.229-18.984H452.911c-18.149 0-33.574 6.328-46.23 18.984s-18.984 28.081-18.984 46.23V438.503c0 18.164 6.328 33.574 18.984 46.23 12.656 12.627 28.081 18.955 46.23 18.955h112.925z m303.677 0c18.193 0 33.617-6.328 46.26-18.955 12.656-12.656 18.984-28.066 18.984-46.23v-110.991c0-18.149-6.328-33.574-18.984-46.23-12.643-12.656-28.066-18.984-46.26-18.984H756.616c-18.164 0-33.574 6.328-46.23 18.984s-18.984 28.081-18.984 46.23V438.503c0 18.164 6.328 33.574 18.984 46.23 12.656 12.627 28.066 18.955 46.23 18.955h112.897z m-611.28-305.639c18.193 0 33.574-6.328 46.26-18.97 12.627-12.671 18.955-28.052 18.955-46.245v-110.962c0-18.149-6.328-33.574-18.955-46.23-12.686-12.656-28.066-18.984-46.26-18.984H147.271c-18.164 0-33.574 6.328-46.23 18.984s-18.984 28.081-18.984 46.23V132.83399999999995c0 18.193 6.328 33.574 18.984 46.245 12.656 12.642 28.066 18.97 46.23 18.97h110.962z m307.603 0c18.163 0 33.589-6.328 46.229-18.97 12.672-12.671 18.984-28.052 18.984-46.245v-110.962c0-18.149-6.313-33.574-18.984-46.23-12.641-12.656-28.066-18.984-46.229-18.984H452.911c-18.149 0-33.574 6.328-46.23 18.984s-18.984 28.081-18.984 46.23V132.83399999999995c0 18.193 6.328 33.574 18.984 46.245 12.656 12.642 28.081 18.97 46.23 18.97h112.925z m303.677 0c18.193 0 33.617-6.328 46.26-18.97 12.656-12.671 18.984-28.052 18.984-46.245v-110.962c0-18.149-6.328-33.574-18.984-46.23-12.643-12.656-28.066-18.984-46.26-18.984H756.616c-18.164 0-33.574 6.328-46.23 18.984s-18.984 28.081-18.984 46.23V132.83399999999995c0 18.193 6.328 33.574 18.984 46.245 12.656 12.642 28.066 18.97 46.23 18.97h112.897z m0 0"  horiz-adv-x="1024" />

    
    <glyph glyph-name="back-large" unicode="&#59011;" d="M514.195342-128a49.408 49.408 0 0 0-35.015111 14.506667L15.535787 350.00888899999995a49.550222 49.550222 0 1 0 70.087111 70.058667l463.502222-463.502223a49.550222 49.550222 0 0 0-35.015111-84.593777zM51.830898 335.55911100000003a49.550222 49.550222 0 0 0-35.015111 84.593778L478.184676 881.521778a49.550222 49.550222 0 0 0 69.973333-70.058667l-461.368889-461.368889a49.408 49.408 0 0 0-34.958222-14.535111z m1452.913778-0.568889h-1453.511112a49.550222 49.550222 0 1 0 0 99.100445h1453.511112a49.550222 49.550222 0 0 0 0-99.100445z"  horiz-adv-x="1554" />

    
    <glyph glyph-name="good" unicode="&#59008;" d="M229.26006125 479.30680125H96.19470781a64.14481594 64.14481594 0 0 1-63.92120344-69.49554094l37.37521688-447.00119812a64.16078813 64.16078813 0 0 1 63.92120344-58.81006219h95.69013656a32.0724075 32.0724075 0 0 1 32.0724075 32.0724075V447.21842156a32.08837969 32.08837969 0 0 1-32.0724075 32.08837969zM926.18006656 479.30680125H639.109655C737.88244906 845.264475 570.44467437 864 570.44467437 864c-71.04485531 0-56.31838125-56.2544925-61.65313406-65.59829625 0-135.82856344-109.10688094-249.26394281-162.10302187-296.35032656a63.63370125 63.63370125 0 0 1-21.19526157-47.64541407v-518.33355562c0-17.71329656 14.35911094-32.0724075 32.07240844-32.0724075h374.99800313a128.11393594 128.11393594 0 0 1 114.95274843 71.30041219c29.19739125 59.08159219 64.95940406 144.85292156 87.75189657 215.30680218 22.05776625 68.15386687 42.10302187 152.69532844 53.85864562 212.14428282a64.09689844 64.09689844 0 0 1-62.9468925 76.55530406z"  horiz-adv-x="1024" />

    
    <glyph glyph-name="logout" unicode="&#59007;" d="M584.470443 218.082c-3.66 0-6.515 0-9.36 0-97.805 0-195.607-0.01-293.414 0-14.5 0.005-23.95 6.65-26.28 18.54-0.458 2.375-0.415 4.87-0.415 7.3-0.018 86.915-0.02 173.825-0.012 260.739 0.003 16.485 8.93 25.255 25.672 25.255 98.247 0.005 196.497 0.005 294.749 0.005 2.645 0 5.31 0 9.06 0 0 2.82 0 5.362 0 7.912 0 77.352-0.01 154.71 0.01 232.069 0 10.645 5.075 19.135 13.67 22.387 9.89 3.745 18.665 2.02 26.12-5.857 4.275-4.517 8.93-8.672 13.32-13.065 55.385-55.265 110.76-110.555 166.13-165.82 71.12-70.965 142.245-141.912 213.365-212.874 11.84-11.802 11.905-24.252 0.205-35.927-101.78-101.605-203.549-203.219-305.359-304.784-28.955-28.885-58.065-57.595-86.995-86.505-7.445-7.45-15.75-10.715-25.915-6.855-9.885 3.75-14.54 11.53-14.54 23.765-0.015 74.905-0.01 149.82-0.01 224.724C584.470443 211.73699999999997 584.470443 214.37699999999995 584.470443 218.082zM401.643443 789.828c0-29.415 0-58.215 0-87.827-2.882 0-5.477 0-8.07 0-74.465 0-148.93 0.01-223.394-0.005-47.187-0.007-81.935-34.827-81.937-82.107-0.007-163.602 0.293-327.202-0.197-490.791-0.135-43.285 32.795-74.47 63.24-80.165 6.727-1.245 13.677-1.81 20.525-1.825 73.797-0.13 147.597-0.08 221.397-0.08 2.622 0 5.247 0 8.302 0 0-29.325 0-58.115 0-87.325-1.05-0.21-2.275-0.68-3.503-0.68-78.467 0-156.942-0.8-235.389 0.34-76.67 1.1-144.565 59.285-159.197 134.595-2.065 10.61-3.075 21.595-3.087 32.405-0.19 165.385-0.627 330.762 0.102 496.134 0.305 69.077 34.625 118.665 94.56 150.892 21.145 11.375 44.502 16.512 68.577 16.572 77.797 0.21 155.595 0.08 233.394 0.075C398.281443 790.035 399.593443 789.92 401.643443 789.828z"  horiz-adv-x="1027" />

    
    <glyph glyph-name="version" unicode="&#59057;" d="M893.7 619.7l-8.5 8.5-105.1 105.2-98.3 98.3c-0.2 0.2-0.4 0.3-0.7 0.3H150c-11 0-20-9-20-20v-856c0-11 9-20 20-20h724c11 0 20 9 20 20V619c0 0.2-0.1 0.5-0.3 0.7zM366.6 514.1h46.2c0.4 0 0.8-0.2 0.9-0.6l90.6-216.8c3-7.2 5.3-15.5 6.8-25h1.1c1.2 8.3 3.7 16.7 7.6 25.3L612 513.5c0.2 0.4 0.5 0.6 0.9 0.6h44.4c0.7 0 1.2-0.7 0.9-1.4l-123-276.1c-0.2-0.4-0.5-0.6-0.9-0.6h-47c-0.4 0-0.8 0.2-0.9 0.6L365.7 512.7c-0.3 0.6 0.2 1.4 0.9 1.4z m312.7-409c0-0.5-0.4-1-1-1H345.7c-0.5 0-1 0.4-1 1v57.7c0 0.5 0.4 1 1 1h332.5c0.5 0 1-0.4 1-1v-57.7zM817.5 609H672.1c-0.5 0-1 0.4-1 1V755.5c0 0.9 1.1 1.3 1.7 0.7l66.4-66.4 79-79.1c0.7-0.6 0.2-1.7-0.7-1.7z"  horiz-adv-x="1024" />

    
    <glyph glyph-name="icon-user-data" unicode="&#59359;" d="M545.636075 343.749274c8.573259-1.451048 17.084097-3.25309 25.537629-5.262864 15.498996-3.689019 30.732955-8.447393 45.64355-14.004969 3.355421-1.249457 6.682189-2.571568 10.000771-3.914146 0.036839-0.014326 0.065492-0.026606 0.101307-0.039909 0.304945-0.130983 0.683569-0.296759 1.177825-0.508583 1.971911-0.848321 3.929496-1.729387 5.888104-2.611477 7.834432-3.52836 15.520485-7.374968 23.099091-11.404748 13.365402-7.109931 30.190603-3.416819 38.053688 9.897418 7.445576 12.603039 3.367701 30.631648-9.976212 37.724183-23.086811 12.281721-47.249117 22.403243-72.110341 30.252001 21.905916 13.344936 41.697681 30.086226 58.072627 49.295729 37.511335 44.002167 58.424644 99.469456 58.640562 157.169599-0.215918 57.995879-21.336958 112.789832-58.640562 157.171646-34.879392 41.501206-86.024236 70.637804-139.5278 80.33056-57.867966 10.491958-117.844965 0.691755-168.805614-28.674063-49.291636-28.402887-86.002746-73.689303-106.098433-126.253472-19.940145-52.130288-19.514449-112.99347 0-165.146271 19.203364-51.329039 55.029314-95.040586 101.991905-123.790374-34.570353-10.917654-67.714218-26.260084-98.28856-45.722344-56.978712-36.270065-104.72004-86.269829-138.317229-144.540977-35.797297-62.09422-54.333466-133.474944-54.534034-204.89967-0.045025-15.037485 12.68388-27.581172 27.809369-27.581172 15.196097 0 27.774577 12.544711 27.813462 27.572986 0.027629 8.471952 0.302899 16.927531 0.836041 25.37697 0.26913 4.222161 0.641613 8.438183 1.044796 12.648065 0.204661 2.104941 0.435928 4.209882 0.673335 6.310729 0.091074 0.799202 0.5137 3.964288 0.705058 5.435803 2.461051 16.675798 6.112208 33.169447 10.723226 49.390897 2.316765 8.141424 4.967128 16.188704 7.819083 24.163329 1.426489 3.989871 2.952238 7.942903 4.511757 11.879562 0.402159 1.016143 0.827855 2.0241 1.24434 3.035126 0.236384 0.51984 1.899256 4.436032 2.300392 5.337565 6.730285 15.057951 14.542204 29.619598 23.143093 43.701315 4.124947 6.754844 8.513908 13.357216 13.049201 19.84907 2.2656 3.248997 4.606925 6.445806 6.971785 9.622148 0.581238 0.780783 1.176802 1.548262 1.766226 2.321882-0.130983-0.207731 2.975774 3.768837 3.641947 4.592598 10.377348 12.814864 21.660322 24.8909 33.593096 36.295648 5.694699 5.451152 11.607362 10.682293 17.622356 15.774265 3.013637 2.550079 6.081509 5.03569 9.165754 7.490601 0.384763 0.304945 1.342578 1.047866 2.12643 1.657756 1.599428 1.199315 3.201925 2.39556 4.815679 3.578502 13.264095 9.715269 27.213805 18.500353 41.608653 26.483164 6.335289 3.51608 12.792351 6.803963 19.316951 9.957793 3.046383 1.472538 6.132674 2.8847 9.222035 4.28049 1.90028 0.858554 3.816932 1.686409 5.729491 2.515287 0.315178 0.12689 0.725524 0.291642 1.270946 0.5137 14.387685 5.838985 29.17139 10.710946 44.161802 14.802124 14.988366 4.097318 30.242791 7.182586 45.614897 9.479909 0.454348 0.064468 0.825808 0.118704 1.133823 0.162706 1.360997 0.167822 2.721994 0.341784 4.086062 0.500397 4.213975 0.48914 8.438183 0.876973 12.662391 1.234107 8.5487 0.721431 17.125029 1.091868 25.698289 1.251503 15.94618 0.301875 31.903617-0.50142 47.76691-2.117221 1.172709-0.121773 6.963599-0.842181 8.023744-0.948605C538.700105 344.88105099999996 542.170137 344.334605 545.636075 343.749274L545.636075 343.749274zM559.414893 418.21015C564.091402 420.236296 561.272193 418.986839 559.414893 418.21015L559.414893 418.21015 559.414893 418.21015zM298.942533 614.263337C298.624285 611.7255379999999 298.750151 612.79387 298.942533 614.263337L298.942533 614.263337 298.942533 614.263337zM521.457396 406.904663c-3.092431-0.633427-6.203282-1.161453-9.327436-1.655709-0.232291-0.036839-0.527003-0.080841-0.847298-0.12689-1.466398-0.170892-2.932796-0.327458-4.400217-0.470721-13.419637-1.333368-26.967188-1.283226-40.402175-0.146333-1.315972 0.109494-5.547343 0.624217-7.101745 0.796132-1.99647 0.313132-3.988848 0.647753-5.974062 1.007957-6.67912 1.209548-13.285584 2.804882-19.818371 4.641717-5.962805 1.675152-11.836583 3.663436-17.630542 5.844102-1.179872 0.446162-2.353604 0.914836-3.527336 1.38351-3.200902 1.400906-6.359848 2.90619-9.488095 4.451382-11.285021 5.581112-22.001083 12.259208-32.126698 19.703761-0.982374 0.776689-1.959631 1.558495-2.928702 2.352581-2.341325 1.90335-4.622274 3.883447-6.878664 5.89322-4.89959 4.334725-9.543354 8.945743-14.022365 13.704117-3.266393 3.474125-6.383384 7.080256-9.397021 10.772344-0.063445 0.149403-3.490497 4.602831-4.375657 5.843078-2.057869 2.867304-4.01136 5.806239-5.922896 8.766664-3.281743 5.101181-6.297426 10.366092-9.134031 15.72617-1.426489 2.686179-2.765997 5.415336-4.069689 8.16496-0.649799 1.354857-1.263783 2.728134-1.880837 4.097318-0.064468 0.158612-0.12996 0.320295-0.203638 0.500397-4.859681 11.921517-8.486278 24.317848-11.101849 36.911678-0.635473 3.065825-1.166569 6.155187-1.664919 9.251711-0.025583 0.159636-0.054235 0.346901-0.084934 0.549515-0.121773 1.025353-0.25071 2.047636-0.358157 3.072989-0.751107 6.90527-1.083681 13.839193-1.160429 20.779256-0.071631 6.432503 0.208754 12.863982 0.714268 19.273972 0.199545 2.556219 0.478907 5.105275 0.783853 7.65126 0.037862 0.272199 0.074701 0.522909 0.105401 0.726547 0.315178 2.069125 0.686638 4.123924 1.068332 6.180769 2.334161 12.670577 5.969968 25.095561 10.56973 37.131689 0.438998 1.14201 0.901533 2.275833 1.362021 3.408633 1.217734 2.746554 2.51324 5.452175 3.843538 8.142447 2.915399 5.895267 6.15928 11.619642 9.601682 17.223267 3.165086 5.146207 6.602372 10.123568 10.197246 14.993482 0.160659 0.216941 0.37453 0.500397 0.605797 0.804319 0.51984 0.64366 1.032516 1.293459 1.558495 1.933025 2.222621 2.727111 4.542456 5.372358 6.90527 7.989975 7.572466 8.401344 15.891945 16.127306 24.712845 23.237237 0.402159 0.25685 4.646833 3.469008 5.858428 4.322445 2.481518 1.750877 5.015224 3.416819 7.563256 5.055133 5.54632 3.570315 11.292184 6.829546 17.133216 9.875928 2.716878 1.411139 5.467525 2.735297 8.238638 4.034896 1.349741 0.632403 2.712785 1.236154 4.082992 1.842974 5.921873 2.38328 11.960403 4.462638 18.066471 6.318916 5.977132 1.813299 12.0525 3.307326 18.161638 4.598738 3.092431 0.650823 6.194072 1.200338 9.304923 1.722224 0.364297 0.059352 0.726547 0.10847 1.089821 0.165776 1.175779 0.152473 3.232624 0.424672 4.137227 0.51984 13.406335 1.430582 26.948769 1.480724 40.387849 0.440022 1.856277-0.141216 3.706415-0.326435 5.554506-0.524956 0.070608-0.052189 5.975085-0.853437 7.572466-1.131777 6.696516-1.163499 13.320377-2.715855 19.872606-4.501524 5.981225-1.62808 11.870352-3.581572 17.680684-5.721305 1.088798-0.398066 4.311189-1.717108 5.944386-2.37714 2.400676-1.072425 4.786003-2.176572 7.148817-3.319605 11.406794-5.544273 22.243607-12.20088 32.489972-19.636223 0.220011-0.160659 0.506537-0.372483 0.812505-0.601704 0.647753-0.514723 1.301645-1.023306 1.947352-1.542122 2.353604-1.892093 4.656043-3.855818 6.928806-5.846148 4.925173-4.306072 9.602705-8.883321 14.114462-13.615089 4.001127-4.193509 7.780197-8.581446 11.419074-13.081946 0.848321-1.122567 1.680269-2.257413 2.508123-3.393283 2.073218-2.856048 4.045129-5.780657 5.978155-8.730848 3.322675-5.075599 6.370081-10.320043 9.243525-15.651468 1.440815-2.677992 2.802836-5.395894 4.130064-8.132214 0.664126-1.37123 1.299599-2.756787 1.935072-4.139274 0.178055-0.387833 0.327458-0.711198 0.456395-0.992607 5.021364-12.189623 8.773827-24.864294 11.440563-37.754882 0.636496-3.066849 1.172709-6.155187 1.671059-9.252735 0.035816-0.220011 0.078795-0.496304 0.121773-0.796132 0.172939-1.466398 0.333598-2.936889 0.479931-4.40738 0.696872-6.913457 0.982374-13.871939 1.00591-20.820188-0.022513-6.424316-0.310062-12.83533-0.857531-19.237133-0.11154-1.2689-0.601704-5.26491-0.785899-6.906294-0.406253-2.539846-0.845251-5.074575-1.332345-7.603165-2.427282-12.643971-6.149047-25.025976-10.829649-37.020148-0.183172-0.465604-0.3776-0.923022-0.564865-1.385557-0.283456-0.659009-0.603751-1.401929-0.814552-1.868557-1.249457-2.780323-2.586918-5.510504-3.950985-8.236592-2.955308-5.867638-6.239098-11.568477-9.722432-17.137309-3.142573-5.03876-6.551206-9.907651-10.106172-14.665001-0.796132-0.992607-1.601474-1.974981-2.410909-2.954285-2.246157-2.706645-4.585435-5.339612-6.963599-7.941879-4.066619-4.448312-8.375761-8.688893-12.803607-12.786211-2.217505-2.049682-4.500501-4.034896-6.79987-5.987365-1.182942-1.004887-5.680373-4.520967-6.55223-5.242398-9.29776-6.800893-19.193131-12.799514-29.459962-18.060331-2.720971-1.390673-5.486968-2.695389-8.267291-3.972475-1.013073-0.466628-2.037403-0.911766-3.061732-1.358951-0.063445-0.025583-0.12382-0.050142-0.181125-0.073678-6.218632-2.493797-12.58155-4.627391-19.006889-6.529717C533.678742 409.598005 527.589047 408.152073 521.457396 406.904663L521.457396 406.904663zM534.893406 253.199978c0-15.036461 12.648065-27.579125 27.808346-27.579125l362.138854 0c15.156188 0 27.808346 12.543687 27.808346 27.579125 0 15.035438-12.651135 27.577079-27.808346 27.577079L562.701752 280.777057C547.541471 280.777057 534.893406 268.23439299999995 534.893406 253.199978L534.893406 253.199978zM924.840606 137.13351899999998L562.701752 137.13351899999998c-15.160281 0-27.808346-12.543687-27.808346-27.578102 0-15.033391 12.648065-27.582195 27.808346-27.582195l362.138854 0c15.156188 0 27.808346 12.548804 27.808346 27.582195C952.648952 124.59085500000003 939.997817 137.13351899999998 924.840606 137.13351899999998L924.840606 137.13351899999998zM924.840606-6.515134999999987L562.701752-6.515134999999987c-15.160281 0-27.808346-12.544711-27.808346-27.578102 0-15.029298 12.648065-27.576055 27.808346-27.576055l362.138854 0c15.156188 0 27.808346 12.546757 27.808346 27.576055C952.648952-19.059844999999996 939.997817-6.515134999999987 924.840606-6.515134999999987L924.840606-6.515134999999987z"  horiz-adv-x="1024" />

    
    <glyph glyph-name="icon-text" unicode="&#59360;" d="M189.901071 355.036341l189.352579 0 46.38647-114.987894 64.878636 0L317.309856 660.144294l-62.823837 0L81.279165 240.048447l64.87966 0L189.901071 355.036341zM276.503475 577.1541609999999c2.740414 6.869455 5.184069 16.630772 7.339152 29.28907l1.467421 0c2.543939-13.924127 4.89345-23.686469 7.048533-29.28907l68.693522-174.654832L208.396307 402.499329 276.503475 577.1541609999999zM65.129346 161.06660499999998l894.566092 0 0-55.171554-894.566092 0 0 55.171554ZM550.697347 256.59223799999995c18.593474-15.730263 43.641963-23.597441 75.153654-23.597441 43.840484 0 77.015048 17.808598 99.520621 53.42784l1.470491 0 0-46.37419 56.951083 0 0 193.09788c0 75.936483-39.142485 113.902166-117.42541 113.902166-42.273802 0-79.55694-9.311063-111.851461-27.933189l0-51.257407c32.094976 24.228821 67.617004 36.344766 106.567108 36.344766 43.837414 0 65.75868-24.50716 65.75868-73.499991l-96.290043-12.476149c-71.827909-9.221012-107.739816-41.856293-107.739816-97.902774C522.812253 293.56531500000006 532.103874 272.32045500000004 550.697347 256.59223799999995zM595.760682 362.632343c10.077519 9.03784 28.427446 15.186887 55.04364 18.441001l76.03779 9.492188 0-28.746718c0-24.592095-8.123005-45.019333-24.364921-61.295018-16.247033-16.269545-36.896328-24.405853-61.945841-24.405853-18.009166 0-32.489972 4.519943-43.447535 13.55983-10.962679 9.03784-16.441461 20.701484-16.441461 34.986839C580.641333 340.93518200000005 585.680093 353.58734000000004 595.760682 362.632343z"  horiz-adv-x="1024" />

    
    <glyph glyph-name="icon-textarea" unicode="&#59361;" d="M64.713884 245.59578999999997l892.684232 0 0-55.053873-892.684232 0 0 55.053873ZM511.057535 658.512121l446.340581 0 0-55.056943-446.340581 0 0 55.056943ZM189.225689 411.632337l188.95349 0 46.288233-114.748441 64.741513 0L316.369438 716.095607l-62.694901 0L80.833003 296.88389700000005l64.74356 0L189.225689 411.632337zM275.649014 633.28046c2.731204 6.856152 5.172813 16.597003 7.319709 29.229718l1.467421 0c2.535753-13.895475 4.880147-23.636327 7.030114-29.229718l68.549236-174.288488L207.68204 458.991971 275.649014 633.28046zM511.057535 520.871297l446.340581 0 0-55.053873-446.340581 0 0 55.053873ZM64.713884 107.95906000000002l892.684232 0 0-55.054897-892.684232 0 0 55.054897ZM511.057535 383.23354400000005l446.340581 0 0-55.054897-446.340581 0 0 55.054897Z"  horiz-adv-x="1024" />

    
    <glyph glyph-name="icon-int" unicode="&#59378;" d="M514.077312 193.32633299999998c40.199561 0 70.936609 16.709567 92.211145 50.126654 1.876744 2.951215 3.570315 6.145977 5.279237 9.317203 19.652596-39.590694 52.199872-59.443857 97.718579-59.443857 40.196491 0 70.932516 16.709567 92.207052 50.126654 21.272489 33.419134 31.909757 80.859609 31.909757 142.327566 0 124.82596-39.174208 187.237405-117.515461 187.237405-41.081651 0-72.479755-16.748453-94.189196-50.242288-2.00568-3.100618-3.826142-6.459109-5.646604-9.812483-19.24225 40.009226-51.016931 60.055794-95.372138 60.055794-41.080627 0-72.475662-16.748453-94.186126-50.242288-21.714558-33.503045-32.573883-82.008782-32.573883-145.528468C393.919674 254.632607 433.973926 193.32633299999998 514.077312 193.32633299999998zM712.807469 514.2392500000001c32.127721 0 48.196699-43.767829 48.196699-131.304512 0-87.220481-16.506952-130.828674-49.517787-130.828674-33.600259 0-50.39783 42.343387-50.39783 127.037325C661.089573 469.209684 678.329213 514.2392500000001 712.807469 514.2392500000001zM517.598508 514.2392500000001c32.131815 0 48.196699-43.767829 48.196699-131.304512 0-87.220481-16.504906-130.828674-49.51574-130.828674-33.600259 0-50.395784 42.343387-50.395784 127.037325C465.884706 469.209684 483.124346 514.2392500000001 517.598508 514.2392500000001zM285.863656 479.79067l0-285.908682 64.385403 0 0 381.212258-56.681954-0.181125c-29.344329-24.019043-64.11525-42.345434-104.314811-54.984289l0-65.651232c12.763698 1.575892 26.77583 5.64558 42.035372 12.20395C246.544139 473.037872 277.05913 471.575568 285.863656 479.79067zM897.529587 829.2333639999999L124.898615 829.2333639999999c-35.558867 0-64.385403-28.827559-64.385403-64.385403l0-760.717641c0-35.558867 28.827559-64.387449 64.385403-64.387449l772.630972 0c35.558867 0 64.385403 28.828582 64.385403 64.387449L961.91499 764.846938C961.916013 800.405805 933.088454 829.2333639999999 897.529587 829.2333639999999zM897.529587 3.280975000000012L124.898615 3.280975000000012 124.898615 765.700375l772.630972 0L897.529587 3.280975000000012z"  horiz-adv-x="1024" />

    
    <glyph glyph-name="icon-select" unicode="&#59380;" d="M832.93236 543.213141L736.883817 543.213141 512.664126 321.99583099999995 288.450575 543.213141 192.402031 543.213141 512.664126 227.231537ZM896.377344 827.274756L128.116913 827.274756c-35.358299 0-64.022129-28.66383-64.022129-64.022129l0-756.417709c0-35.358299 28.66383-64.024176 64.022129-64.024176l768.261455 0c35.359322 0 64.022129 28.665877 64.022129 64.024176l0 756.417709C960.399473 798.6109260000001 931.73769 827.274756 896.377344 827.274756zM896.377344 5.991714000000002L128.116913 5.991714000000002 128.116913 764.100948l768.261455 0L896.378367 5.991714000000002z"  horiz-adv-x="1024" />

    
    <glyph glyph-name="icon-checkbox" unicode="&#59385;" d="M826.442552 636.246001l-15.518438 37.422308c-184.594205-118.078279-318.340325-266.601964-378.600781-341.447603L285.270139 452.695568l-65.22656-54.614875 254.308987-270.169209C518.392594 244.87845200000004 657.011698 473.647763 826.442552 636.246001zM898.217249 828.63473L125.781728 828.63473c-35.549657 0-64.370053-28.819372-64.370053-64.370053l0-760.527306c0-35.549657 28.819372-64.3721 64.370053-64.3721l772.435521 0c35.551704 0 64.370053 28.821419 64.370053 64.3721L962.587302 764.264677C962.587302 799.814334 933.769976 828.63473 898.217249 828.63473zM898.217249 2.889049L125.781728 2.889049 125.781728 765.117091l772.435521 0L898.217249 2.889049z"  horiz-adv-x="1024" />

    
    <glyph glyph-name="icon-calendar" unicode="&#59109;" d="M496 240c-8 0-16 3.2-22.4 9.6l-144 144c-12.8 12.8-12.8 32 0 44.8 12.8 12.8 32 12.8 44.8 0L496 316.79999999999995l201.6 201.6c12.8 12.8 32 12.8 44.8 0 12.8-12.8 12.8-32 0-44.8l-224-224C512 243.20000000000005 504 240 496 240z m336-272H192c-52.8 0-96 43.2-96 96V672c0 52.8 43.2 96 96 96 17.6 0 32-14.4 32-32s-14.4-32-32-32-32-14.4-32-32v-608c0-17.6 14.4-32 32-32h640c17.6 0 32 14.4 32 32V672c0 17.6-14.4 32-32 32s-32 14.4-32 32 14.4 32 32 32c52.8 0 96-43.2 96-96v-608c0-52.8-43.2-96-96-96zM320 672c-17.6 0-32 14.4-32 32v64c0 17.6 14.4 32 32 32s32-14.4 32-32v-64c0-17.6-14.4-32-32-32z m256 32H448c-17.6 0-32 14.4-32 32s14.4 32 32 32h128c17.6 0 32-14.4 32-32s-14.4-32-32-32z m128-32c-17.6 0-32 14.4-32 32v64c0 17.6 14.4 32 32 32s32-14.4 32-32v-64c0-17.6-14.4-32-32-32z"  horiz-adv-x="1024" />

    
    <glyph glyph-name="icon-email" unicode="&#59115;" d="M864 0H160c-52.8 0-96 43.2-96 96V672c0 52.8 43.2 96 96 96h704c52.8 0 96-43.2 96-96v-576c0-52.8-43.2-96-96-96zM160 704c-17.6 0-32-14.4-32-32v-576c0-17.6 14.4-32 32-32h704c17.6 0 32 14.4 32 32V672c0 17.6-14.4 32-32 32H160z m352-425.6c-22.4 0-46.4 8-64 24L203.2 520c-12.8 11.2-14.4 32-3.2 44.8 11.2 12.8 32 14.4 44.8 3.2l244.8-217.6c12.8-11.2 30.4-11.2 43.2 0L777.6 568c12.8 11.2 33.6 11.2 44.8-3.2s11.2-33.6-3.2-44.8L576 302.4c-19.2-16-41.6-24-64-24z"  horiz-adv-x="1024" />

    
    <glyph glyph-name="icon-users" unicode="&#59122;" d="M608 211.20000000000005c-158.4 0-286.4 128-286.4 286.4S449.6 784 608 784s286.4-128 286.4-286.4-128-286.4-286.4-286.4z m0 508.8c-123.2 0-222.4-99.2-222.4-222.4S484.8 275.20000000000005 608 275.20000000000005s222.4 99.2 222.4 222.4S731.2 720 608 720zM289.6 251.20000000000005c-3.2 0-6.4 0-9.6 1.6-94.4 32-158.4 120-158.4 219.2 0 83.2 44.8 160 116.8 201.6 16 8 35.2 3.2 43.2-12.8s3.2-35.2-12.8-43.2C216 587.2 184 532.8 184 472c0-72 46.4-136 113.6-158.4 16-4.8 25.6-24 20.8-40-3.2-12.8-16-22.4-28.8-22.4zM936-16c-8 0-17.6 3.2-24 9.6-80 84.8-188.8 131.2-305.6 131.2-116.8 0-225.6-46.4-305.6-131.2-12.8-12.8-32-12.8-44.8-1.6s-12.8 32-1.6 44.8c92.8 97.6 217.6 152 352 152s259.2-54.4 352-152c12.8-12.8 11.2-33.6-1.6-44.8-4.8-4.8-12.8-8-20.8-8zM94.4 64c-8 0-16 3.2-22.4 8-12.8 12.8-12.8 32-1.6 44.8 60.8 64 142.4 105.6 230.4 116.8 17.6 1.6 33.6-9.6 35.2-27.2 1.6-17.6-9.6-33.6-27.2-35.2-73.6-9.6-140.8-44.8-192-97.6-4.8-6.4-12.8-9.6-22.4-9.6z"  horiz-adv-x="1024" />

    
    <glyph glyph-name="icon-relate" unicode="&#59123;" d="M235.2 0c-16 0-30.4 1.6-46.4 6.4C144 17.600000000000023 105.6 48 83.2 88c-48 84.8-19.2 192 64 240 40 24 88 30.4 132.8 17.6 44.8-12.8 83.2-41.6 107.2-81.6s30.4-88 17.6-132.8S363.2 48 323.2 24c-27.2-16-57.6-24-88-24z m0 288c-19.2 0-38.4-4.8-56-14.4-52.8-30.4-72-99.2-41.6-153.6 14.4-25.6 38.4-44.8 68.8-52.8 28.8-8 59.2-3.2 84.8 11.2 25.6 14.4 44.8 38.4 52.8 67.2s3.2 59.2-11.2 84.8-38.4 44.8-68.8 52.8c-9.6 3.2-19.2 4.8-28.8 4.8z m553.6-288c-30.4 0-60.8 8-88 24-40 24-70.4 60.8-81.6 107.2S612.8 224 636.8 264c24 40 60.8 70.4 107.2 81.6 44.8 12.8 92.8 6.4 132.8-17.6 84.8-48 113.6-156.8 64-240-24-40-60.8-70.4-107.2-81.6-14.4-4.8-28.8-6.4-44.8-6.4z m0 288c-9.6 0-19.2-1.6-28.8-3.2-28.8-8-52.8-25.6-67.2-52.8-14.4-25.6-19.2-56-11.2-84.8 8-28.8 25.6-52.8 52.8-67.2 25.6-14.4 56-19.2 84.8-11.2 28.8 8 52.8 25.6 67.2 52.8 30.4 52.8 12.8 121.6-41.6 153.6-17.6 8-36.8 12.8-56 12.8zM512 480c-97.6 0-176 78.4-176 176S414.4 832 512 832s176-78.4 176-176-78.4-176-176-176z m0 288c-62.4 0-112-49.6-112-112s49.6-112 112-112 112 49.6 112 112-49.6 112-112 112z m318.4-486.4h-1.6c-17.6 1.6-30.4 16-30.4 33.6v3.2c0 6.4 1.6 11.2 1.6 17.6 0 110.4-62.4 209.6-161.6 259.2-16 8-22.4 27.2-14.4 43.2 8 16 27.2 22.4 43.2 14.4C788.8 592 864 472 864 336c0-8 0-14.4-1.6-22.4v-3.2c0-16-14.4-28.8-32-28.8zM512-16c-70.4 0-139.2 20.8-196.8 60.8-14.4 9.6-19.2 30.4-8 44.8 9.6 14.4 30.4 19.2 44.8 8 48-32 104-49.6 161.6-49.6 57.6 0 113.6 17.6 161.6 49.6 14.4 9.6 35.2 6.4 44.8-8 9.6-14.4 6.4-35.2-8-44.8-60.8-40-129.6-60.8-200-60.8zM193.6 281.6c-16 0-30.4 12.8-32 30.4v3.2c0 6.4-1.6 14.4-1.6 20.8 0 136 75.2 256 198.4 316.8 16 8 35.2 1.6 43.2-14.4s1.6-35.2-14.4-43.2C286.4 545.6 224 446.4 224 336c0-6.4 0-11.2 1.6-16v-3.2c1.6-17.6-12.8-33.6-30.4-33.6 0-1.6-1.6-1.6-1.6-1.6z"  horiz-adv-x="1024" />

    
    <glyph glyph-name="icon-mobile" unicode="&#59124;" d="M800-64H224c-52.8 0-96 43.2-96 96V736c0 52.8 43.2 96 96 96h576c52.8 0 96-43.2 96-96v-704c0-52.8-43.2-96-96-96zM224 768c-17.6 0-32-14.4-32-32v-704c0-17.6 14.4-32 32-32h576c17.6 0 32 14.4 32 32V736c0 17.6-14.4 32-32 32H224z m384-704H416c-17.6 0-32 14.4-32 32s14.4 32 32 32h192c17.6 0 32-14.4 32-32s-14.4-32-32-32z"  horiz-adv-x="1024" />

    
    <glyph glyph-name="icon-file" unicode="&#59125;" d="M342.4-57.60000000000002c-72 0-140.8 28.8-192 80s-80 120-80 192 28.8 140.8 80 192c12.8 12.8 32 12.8 44.8 0 12.8-12.8 12.8-32 0-44.8-40-40-60.8-91.2-60.8-147.2s22.4-107.2 60.8-147.2c40-40 91.2-60.8 147.2-60.8 56 0 107.2 22.4 147.2 60.8l339.2 339.2c40 40 60.8 91.2 60.8 147.2 0 56-22.4 107.2-60.8 147.2-40 40-91.2 60.8-147.2 60.8s-107.2-22.4-147.2-60.8c-12.8-12.8-32-12.8-44.8 0-12.8 12.8-12.8 32 0 44.8 51.2 51.2 120 80 192 80s140.8-28.8 192-80 80-120 80-192-28.8-140.8-80-192L534.4 22.399999999999977c-51.2-51.2-120-80-192-80z m0 240c-8 0-16 3.2-22.4 9.6-12.8 12.8-12.8 32 0 44.8l176 176c33.6 33.6 33.6 89.6 0 124.8-16 16-38.4 25.6-62.4 25.6s-46.4-9.6-62.4-25.6l-176-176c-12.8-12.8-32-12.8-44.8 0-12.8 12.8-12.8 32 0 44.8l176 176c28.8 28.8 67.2 44.8 107.2 44.8s78.4-16 107.2-44.8c59.2-59.2 59.2-155.2 0-214.4l-176-176c-6.4-6.4-14.4-9.6-22.4-9.6z"  horiz-adv-x="1024" />

    
    <glyph glyph-name="icon-coin" unicode="&#59130;" d="M512 512c-46.4 0-448 3.2-448 128s401.6 128 448 128c46.4 0 448-3.2 448-128S558.4 512 512 512zM129.6 640c22.4-24 160-64 382.4-64s360 40 382.4 64c-22.4 24-160 64-382.4 64-222.4 0-360-40-382.4-64zM512 256c-46.4 0-448 3.2-448 128 0 17.6 14.4 32 32 32s30.4-12.8 32-30.4c16-24 155.2-65.6 384-65.6s368 41.6 384 65.6c1.6 16 14.4 30.4 32 30.4s32-14.4 32-32c0-124.8-401.6-128-448-128z m0-256c-46.4 0-448 3.2-448 128 0 17.6 14.4 32 32 32s30.4-12.8 32-30.4c16-24 155.2-65.6 384-65.6s368 41.6 384 65.6c1.6 16 14.4 30.4 32 30.4s32-14.4 32-32c0-124.8-401.6-128-448-128z"  horiz-adv-x="1024" />

    
    <glyph glyph-name="icon-date" unicode="&#59147;" d="M832-32H192c-52.8 0-96 43.2-96 96V672c0 52.8 43.2 96 96 96 17.6 0 32-14.4 32-32s-14.4-32-32-32-32-14.4-32-32v-608c0-17.6 14.4-32 32-32h640c17.6 0 32 14.4 32 32V672c0 17.6-14.4 32-32 32s-32 14.4-32 32 14.4 32 32 32c52.8 0 96-43.2 96-96v-608c0-52.8-43.2-96-96-96zM320 672c-17.6 0-32 14.4-32 32v64c0 17.6 14.4 32 32 32s32-14.4 32-32v-64c0-17.6-14.4-32-32-32z m256 32H448c-17.6 0-32 14.4-32 32s14.4 32 32 32h128c17.6 0 32-14.4 32-32s-14.4-32-32-32z m128-32c-17.6 0-32 14.4-32 32v64c0 17.6 14.4 32 32 32s32-14.4 32-32v-64c0-17.6-14.4-32-32-32zM512 128c-3.2 0-6.4 0-9.6 1.6-16 4.8-25.6 24-20.8 40L595.2 512H384c-17.6 0-32 14.4-32 32s14.4 32 32 32h211.2c20.8 0 40-9.6 51.2-27.2 12.8-16 16-38.4 8-57.6L540.8 148.79999999999995c-3.2-12.8-16-20.8-28.8-20.8z"  horiz-adv-x="1024" />

    
    <glyph glyph-name="house" unicode="&#59006;" d="M146.29 344.241v-326.583c0-36.544 36.602-73.041 73.175-73.041h585.122c36.6 0 73.173 36.497 73.173 73.041V344.241L512.01 662.013 146.29 344.241z m475.436-107.414v-182.626H402.324V236.827c0 40.306 32.779 73.043 73.144 73.043h73.172c40.334 0 73.086-32.737 73.086-73.043z m399.87 134.753c-5.422-15.192-19.657-25.197-35.609-25.197h-54.915L512.01 710.3969999999999 93.007 346.38300000000004H38.091c-15.953 0-30.185 10.005-35.61 25.197-5.629 15.138-1.283 32.066 10.879 42.524l445.628 387.46c15.078 13.124 34.064 19.627 53.022 19.627 18.986 0 37.972-6.504 53.049-19.627l129.81-112.865v59.495c0 20.123 16.391 36.484 36.572 36.484h36.572c20.181 0 36.572-16.361 36.572-36.484v-154.849l206.103-179.241c12.104-10.458 16.507-27.386 10.908-42.524z"  horiz-adv-x="1024" />

    
    <glyph glyph-name="phoneing" unicode="&#59100;" d="M89.472 671.498c0 0 75.008 159.424 201.792 0 126.528-159.616 0-206.4 0-206.4s-84.352-79.808-18.816-131.456c65.664-51.456 225.28-192.256 225.28-192.256s63.232-84.288 131.2-23.36c84.48 70.144 117.312 81.984 182.912 32.768 114.496-85.376 150.272-171.264-23.232-239.232-192.384-93.824-534.784 229.888-534.784 229.888s-337.856 323.648-164.352 530.048zM525.76 589.0029999999999c0 0-63.232-6.72-51.712 59.2 5.312 29.952 56.32 39.808 103.232 25.536 47.168-14.016 222.912-91.392 230.016-288.512 0 0-12.992-55.296-54.208-44.352-44.288 11.776-32.64 95.616-35.136 111.936-2.24 16.384-63.104 143.168-192.192 136.192zM647.616 760.203c0 0-77.376-8.064-63.104 72.256 6.336 36.864 68.928 48.896 126.528 31.68 57.408-17.28 272.704-112 281.216-353.152 0 0-18.432-75.264-65.792-54.72-41.408 18.24-43.52 120-46.272 140.096-3.136 20.096-74.304 172.48-232.576 163.84z"  horiz-adv-x="1024" />

    
    <glyph glyph-name="catalog" unicode="&#59001;" d="M392 564l480 0c36 0 60 24 60 60 0 36-24 60-60 60L392 684C356 684 332 660 332 624 332 588 356 564 392 564zM872 444L392 444C356 444 332 420 332 384c0-36 24-60 60-60l480 0c36 0 60 24 60 60C932 420 908 444 872 444zM872 204L392 204c-36 0-60-24-60-60 0-36 24-60 60-60l480 0c36 0 60 24 60 60C932 180 908 204 872 204zM152 684C116 684 92 660 92 624c0-36 24-60 60-60s60 24 60 60C212 660 188 684 152 684zM152 444C116 444 92 420 92 384c0-36 24-60 60-60s60 24 60 60C212 420 188 444 152 444zM152 204c-36 0-60-24-60-60 0-36 24-60 60-60s60 24 60 60C212 180 188 204 152 204z"  horiz-adv-x="1024" />

    
    <glyph glyph-name="doc" unicode="&#59002;" d="M319.52138094 536.8061578100001l382.84762969 0.354c21.05964188 0 38.13606375 17.07546281 38.13606375 38.13606375 0 21.05964188-17.07642187 38.13510469-38.13606376 38.13510469l-382.84762968-0.354c-21.06156 0-38.13702281-17.06586937-38.13702281-38.13606375C281.38435719 553.88162063 298.45982 536.8061578100001 319.52138094 536.8061578100001zM319.52138094 384.26286188l382.84762969 0.354c21.05964188 0 38.13606375 17.07546281 38.13606375 38.13510468 0 21.05964188-17.07642187 38.13510469-38.13606376 38.13510469l-382.84762968-0.354c-21.06156 0-38.13702281-17.06491031-38.13702281-38.13510469C281.38435719 401.33832469 298.45982 384.26286188 319.52138094 384.26286188zM854.33477656 278.82171094l-0.31658531 452.3784075c-1.78630875 40.44521812-34.82055187 72.75227437-75.67637156 72.89233875l-537.53123344-0.30699188c-40.51908844-1.79782125-72.90289219-34.97116969-72.90289219-75.93731437l0-40.51908844-0.31466625 0 0.25998375-605.40713437 0.0546825 0 0-40.51908844c0-42.12024281 34.15188469-76.27020844 76.27308656-76.27020844l38.13510469 0 0-0.21489469 112.58254875 0.20434125c21.06156 0 38.13702281 17.07546281 38.13702282 38.13510469 0 21.06156-17.07546281 38.13702281-38.13702282 38.13702281l-98.22492375-0.17748c-36.70183594 3.54671531-50.1653475 15.94822687-52.54837218 54.50352657l-0.26094282 584.31775218 0.22352813-30.21087656c-0.91138219 64.99593281 14.00362594 76.76523281 75.19189969 77.62960688l-8.82601594 0.09305718 393.18174281 0.22352813c56.77718531-1.34021156 73.385445-11.86139813 74.1701925-65.78835563l0-3.51025968c0-2.81185312 0-5.62370719-0.0767475-8.66772375l0.0767475 3.82588593 0.24079688-344.96387437-150.12285657-0.20434125 0-0.110325-40.51908843 0c-42.12024281 0-76.27020844-34.14229125-76.27020844-76.27308656l0-38.13510469-0.26094281 0 0.24175593-183.28757063c-2.45785313-12.1233 0.96894281-25.19443781 10.37152782-34.59702281 3.77983687-3.77887781 8.17653656-6.58305656 12.8313-8.44323562 4.59912187-1.95707344 9.64434094-3.04689375 14.93227593-3.04689375 13.31577188 0 24.99009656 6.83440594 31.80435657 17.16084468l254.69963343 255.34047938c2.82912187 1.71243937 5.47404844 3.68678062 7.78416188 6.05925187 7.2229425 6.9360975 11.74915406 16.63991813 11.74915406 27.44890969C855.2854925 273.42153186999997 854.9314925 276.15759749999995 854.33477656 278.82171094zM587.27200531 95.96296874999996l-0.07387031 63.52620937c0.52188656 58.04064844 13.96525125 72.62084344 77.38977 72.62084344l-76.94175375-0.51133312-0.46624406-68.64721688-0.09305719 69.18733125 136.19502 0.18515438L587.27200531 95.96296874999996z"  horiz-adv-x="1024" />

    
    <glyph glyph-name="book" unicode="&#59004;" d="M812.26230005 19.669274040000005H242.90017908a38.47497446 38.47497446 0 0 0-38.64372365 38.36247474c0 21.14998627 17.32498819 38.30622446 38.64372365 38.30622446h405.33722973V805.875H204.25645545C172.30647659 805.875 146.37524335 780.11251758 146.37524335 748.33128873v-690.29953995A96.18743573 96.18743573 0 0 1 242.90017908-37.87443723000001h569.36212097a28.85623105 28.85623105 0 0 1 28.96873077 28.7437305 28.85623105 28.85623105 0 0 1-28.96873077 28.79998077zM777.38732339 805.875H692.33737942v-694.85578665h85.04994397c35.2687261 0 63.84370743 25.25623325 63.84370744 56.3624621V749.56878735C841.23103082 780.61876675 812.65604951 805.875 777.38732339 805.875z"  horiz-adv-x="1024" />

    
    <glyph glyph-name="upload-simple" unicode="&#59005;" d="M813.378125 548.034375C785.95625 688.546875 662.58125 794.784375 511.784375 794.784375c-150.7875 0-274.1625-106.2375-301.584375-246.75C107.39375 520.6125 32 424.659375 32 314.990625c0-133.659375 106.2375-239.90625 239.896875-239.90625h34.275v68.55h-34.275c-95.953125 0-171.35625 75.39375-171.35625 171.35625 0 95.953125 75.39375 171.35625 171.35625 171.35625 0 133.659375 106.2375 239.896875 239.896875 239.896875s239.90625-106.2375 239.90625-239.896875c95.953125 0 171.35625-75.39375 171.35625-171.35625s-75.39375-171.35625-171.35625-171.35625h-34.275v-68.55h34.275c133.659375 0 239.896875 106.246875 239.896875 239.90625-0.009375 109.66875-75.4125 205.621875-178.21875 233.04375z m0 0M542.6375 407.521875c-13.715625 10.284375-27.4125 13.715625-41.128125 6.853125-3.421875 0-6.853125-3.421875-10.284375-6.853125L388.409375 308.13750000000005c-13.70625-13.715625-13.70625-34.275 0-47.98125 13.715625-13.715625 37.696875-13.715625 51.4125 0l41.11875 37.696875v-291.309375c0-20.559375 17.1375-34.265625 34.275-34.265625 20.559375 0 34.265625 17.128125 34.265625 34.265625V297.86249999999995l41.128125-37.696875c13.70625-13.715625 37.696875-13.715625 51.403125 0 13.715625 13.70625 13.715625 34.265625 0 47.98125l-99.375 99.375z m0 0"  horiz-adv-x="1024" />

    
    </font>
</defs>
</svg>
